999
DXF file: 898403-panel-cutout.dxf
999
Pro/ENGINEER 2011220 by Parametric Technology Corporation
  0
SECTION
  2
HEADER
  9
$ACADVER
  1
AC1015
  9
$DWGCODEPAGE
  3
ANSI_1252
  9
$EXTMAX
 10
17.0
 20
11.0
 30
0.0
  9
$EXTMIN
 10
0.0
 20
0.0
 30
0.0
  9
$LIMMIN
 10
0.0
 20
0.0
  9
$LIMMAX
 10
17.0
 20
11.0
  9
$VIEWCTR
 10
8.5
 20
5.5
  9
$VIEWSIZE
 40
11.0
  9
$CLAYER
  8
0
  9
$LTSCALE
 40
0.935
  9
$CELTYPE
  6
BYLAYER
  9
$DIMSCALE
 40
1.0
  9
$DIMASZ
 40
0.15
  9
$DIMEXO
 40
0.10625
  9
$DIMDLI
 40
0.646
  9
$DIMEXE
 40
0.306
  9
$DIMCEN
 40
0.153
  9
$DIMLFAC
 40
1.0
  9
$DIMBLK
  1
_FILLED
  9
$DIMTXT
 40
0.156
  9
$DIMTOL
 70
1
  9
$DIMLIM
 70
0
  9
$DIMTFAC
 40
1.0
  9
$DIMTP
 40
0.005
  9
$DIMTM
 40
0.005
  9
$PDMODE
 70
3
  9
$PDSIZE
 40
0.3125
  9
$HANDSEED
  5
9A4
  9
$TILEMODE
 70
1
  9
$MEASUREMENT
 70
0
  9
$INSUNITS
 70
1
  0
ENDSEC
  0
SECTION
  2
CLASSES
  0
CLASS
  1
ACDBDICTIONARYWDFLT
  2
AcDbDictionaryWithDefault
  3
AutoCAD 2000
 90
0
280
0
281
0
  0
CLASS
  1
ACDBPLACEHOLDER
  2
AcDbPlaceHolder
  3
AutoCAD 2000
 90
0
280
0
281
0
  0
CLASS
  1
LAYOUT
  2
AcDbLayout
  3
AutoCAD 2000
 90
0
280
0
281
0
  0
ENDSEC
  0
SECTION
  2
TABLES
  0
TABLE
  2
VPORT
  5
8
100
AcDbSymbolTable
 70
2
  0
VPORT
  5
1F4
100
AcDbSymbolTableRecord
100
AcDbViewportTableRecord
  2
*ACTIVE
 70
0
 10
0.0
 20
0.0
 11
1.0
 21
1.0
 12
8.5
 22
5.5
 13
0.0
 23
0.0
 14
1.0
 24
1.0
 15
0.0
 25
0.0
 16
0.0
 26
0.0
 36
1.0
 17
0.0
 27
0.0
 37
0.0
 40
11.0
 41
1.5454545455
 42
50.0
 43
0.0
 44
0.0
 50
0.0
 51
0.0
 71
0
 72
100
 73
1
 74
1
 75
0
 76
0
 77
0
 78
0
  0
ENDTAB
  0
TABLE
  2
LTYPE
  5
5
100
AcDbSymbolTable
 70
6
  0
LTYPE
  5
14
100
AcDbSymbolTableRecord
100
AcDbLinetypeTableRecord
  2
BYBLOCK
 70
0
  3

 72
65
 73
0
 40
0.0
  0
LTYPE
  5
15
100
AcDbSymbolTableRecord
100
AcDbLinetypeTableRecord
  2
BYLAYER
 70
0
  3

 72
65
 73
0
 40
0.0
  0
LTYPE
  5
16
100
AcDbSymbolTableRecord
100
AcDbLinetypeTableRecord
  2
CONTINUOUS
 70
64
  3
Solid line
 72
65
 73
0
 40
0.0
  0
LTYPE
  5
1F5
100
AcDbSymbolTableRecord
100
AcDbLinetypeTableRecord
  2
CENTER
 70
64
  3
____ _ ____ _ ____ _ ____ _ ____ _ ____ _ ____
 72
65
 73
4
 40
0.6
 49
0.375
 74
0
 49
-0.075
 74
0
 49
0.075
 74
0
 49
-0.075
 74
0
  0
LTYPE
  5
1F6
100
AcDbSymbolTableRecord
100
AcDbLinetypeTableRecord
  2
HIDDEN
 70
64
  3
- - - - - - - - - - - - - - - - - - - -
 72
65
 73
2
 40
0.2
 49
0.1
 74
0
 49
-0.1
 74
0
  0
LTYPE
  5
1F7
100
AcDbSymbolTableRecord
100
AcDbLinetypeTableRecord
  2
PHANTOM
 70
64
  3
_____ _ _ _____ _ _ _____ _ _ _____
 72
65
 73
6
 40
0.8
 49
0.45
 74
0
 49
-0.05
 74
0
 49
0.1
 74
0
 49
-0.05
 74
0
 49
0.1
 74
0
 49
-0.05
 74
0
  0
LTYPE
  5
1F8
100
AcDbSymbolTableRecord
100
AcDbLinetypeTableRecord
  2
DOT
 70
64
  3
. . . . . . . . . . . . . . . . . . . .
 72
65
 73
2
 40
0.2
 49
0.1
 74
0
 49
-0.1
 74
0
  0
LTYPE
  5
1F9
100
AcDbSymbolTableRecord
100
AcDbLinetypeTableRecord
  2
DASHED
 70
64
  3
- - - - - - - - - - - - - - - - - - - -
 72
65
 73
2
 40
0.2
 49
0.1
 74
0
 49
-0.1
 74
0
  0
ENDTAB
  0
TABLE
  2
LAYER
  5
2
100
AcDbSymbolTable
 70
36
  0
LAYER
  5
10
100
AcDbSymbolTableRecord
100
AcDbLayerTableRecord
  2
0
 70
0
 62
7
  6
CONTINUOUS
370
-3
390
F
  0
LAYER
  5
1FA
100
AcDbSymbolTableRecord
100
AcDbLayerTableRecord
  2
DEFAULT_1
 70
0
 62
7
  6
CENTER
370
-3
390
F
  0
LAYER
  5
1FB
100
AcDbSymbolTableRecord
100
AcDbLayerTableRecord
  2
DEFAULT_2
 70
0
 62
8
  6
HIDDEN
370
-3
390
F
  0
LAYER
  5
1FC
100
AcDbSymbolTableRecord
100
AcDbLayerTableRecord
  2
DEFAULT_3
 70
0
 62
7
  6
PHANTOM
370
-3
390
F
  0
LAYER
  5
1FD
100
AcDbSymbolTableRecord
100
AcDbLayerTableRecord
  2
1_ALL_PLANES
 70
0
 62
7
  6
CONTINUOUS
370
-3
390
F
  0
LAYER
  5
1FE
100
AcDbSymbolTableRecord
100
AcDbLayerTableRecord
  2
2_ALL_CSYS
 70
0
 62
7
  6
CONTINUOUS
370
-3
390
F
  0
LAYER
  5
1FF
100
AcDbSymbolTableRecord
100
AcDbLayerTableRecord
  2
3_ALL_AXES
 70
0
 62
7
  6
CONTINUOUS
370
-3
390
F
  0
LAYER
  5
200
100
AcDbSymbolTableRecord
100
AcDbLayerTableRecord
  2
COSMETIC
 70
0
 62
7
  6
CONTINUOUS
370
-3
390
F
  0
ENDTAB
  0
TABLE
  2
STYLE
  5
3
100
AcDbSymbolTable
 70
1
  0
STYLE
  5
11
100
AcDbSymbolTableRecord
100
AcDbTextStyleTableRecord
  2
STANDARD
 70
0
 40
0.0
 41
0.8
 50
0.0
 71
0
 42
0.2
  3
txt
  4

  0
STYLE
  5
201
100
AcDbSymbolTableRecord
100
AcDbTextStyleTableRecord
  2
TEXTSTYLE_1
 70
0
 40
0.0
 41
0.8
 50
0.0
 71
0
 42
0.2
  3
gdt
  4

  0
STYLE
  5
202
100
AcDbSymbolTableRecord
100
AcDbTextStyleTableRecord
  2
TEXTSTYLE_2
 70
0
 40
0.0
 41
1.3272720058
 50
0.0
 71
0
 42
0.2
  3
txt
  4

  0
STYLE
  5
203
100
AcDbSymbolTableRecord
100
AcDbTextStyleTableRecord
  2
TEXTSTYLE_3
 70
0
 40
0.0
 41
1.0
 50
0.0
 71
0
 42
0.2
  3
geinspirareg.ttf
  4

  0
STYLE
  5
204
100
AcDbSymbolTableRecord
100
AcDbTextStyleTableRecord
  2
TEXTSTYLE_4
 70
0
 40
0.0
 41
0.9
 50
0.0
 71
0
 42
0.2
  3
txt
  4

  0
STYLE
  5
205
100
AcDbSymbolTableRecord
100
AcDbTextStyleTableRecord
  2
TEXTSTYLE_5
 70
0
 40
0.0
 41
0.65
 50
0.0
 71
0
 42
0.2
  3
txt
  4

  0
STYLE
  5
206
100
AcDbSymbolTableRecord
100
AcDbTextStyleTableRecord
  2
TEXTSTYLE_6
 70
0
 40
0.0
 41
0.8
 50
0.0
 71
0
 42
0.2
  3
txt
  4

  0
STYLE
  5
207
100
AcDbSymbolTableRecord
100
AcDbTextStyleTableRecord
  2
TEXTSTYLE_7
 70
0
 40
0.0
 41
0.95
 50
0.0
 71
0
 42
0.2
  3
txt
  4

  0
STYLE
  5
208
100
AcDbSymbolTableRecord
100
AcDbTextStyleTableRecord
  2
TEXTSTYLE_8
 70
0
 40
0.0
 41
1.12
 50
0.0
 71
0
 42
0.2
  3
txt
  4

  0
STYLE
  5
209
100
AcDbSymbolTableRecord
100
AcDbTextStyleTableRecord
  2
TEXTSTYLE_9
 70
0
 40
0.0
 41
1.0
 50
0.0
 71
0
 42
0.2
  3
txt
  4

  0
STYLE
  5
20A
100
AcDbSymbolTableRecord
100
AcDbTextStyleTableRecord
  2
TEXTSTYLE_10
 70
0
 40
0.0
 41
0.7
 50
0.0
 71
0
 42
0.2
  3
txt
  4

  0
STYLE
  5
20B
100
AcDbSymbolTableRecord
100
AcDbTextStyleTableRecord
  2
TEXTSTYLE_11
 70
0
 40
0.0
 41
1.31667
 50
0.0
 71
0
 42
0.2
  3
txt
  4

  0
STYLE
  5
20C
100
AcDbSymbolTableRecord
100
AcDbTextStyleTableRecord
  2
TEXTSTYLE_12
 70
0
 40
0.0
 41
1.28
 50
0.0
 71
0
 42
0.2
  3
txt
  4

  0
STYLE
  5
20D
100
AcDbSymbolTableRecord
100
AcDbTextStyleTableRecord
  2
TEXTSTYLE_13
 70
0
 40
0.0
 41
0.55
 50
0.0
 71
0
 42
0.2
  3
txt
  4

  0
STYLE
  5
20E
100
AcDbSymbolTableRecord
100
AcDbTextStyleTableRecord
  2
TEXTSTYLE_14
 70
0
 40
0.0
 41
0.6
 50
0.0
 71
0
 42
0.2
  3
txt
  4

  0
ENDTAB
  0
TABLE
  2
VIEW
  5
6
100
AcDbSymbolTable
 70
0
  0
ENDTAB
  0
TABLE
  2
UCS
  5
7
100
AcDbSymbolTable
 70
0
  0
ENDTAB
  0
TABLE
  2
APPID
  5
9
100
AcDbSymbolTable
 70
1
  0
APPID
  5
20F
100
AcDbSymbolTableRecord
100
AcDbRegAppTableRecord
  2
ACAD
 70
0
  0
ENDTAB
  0
TABLE
  2
BLOCK_RECORD
  5
1
100
AcDbSymbolTable
 70
0
  0
BLOCK_RECORD
  5
210
100
AcDbSymbolTableRecord
100
AcDbBlockTableRecord
  2
*Model_Space
  0
BLOCK_RECORD
  5
211
100
AcDbSymbolTableRecord
100
AcDbBlockTableRecord
  2
*Paper_Space
  0
BLOCK_RECORD
  5
212
100
AcDbSymbolTableRecord
100
AcDbBlockTableRecord
  2
_FILLED
  0
BLOCK_RECORD
  5
213
100
AcDbSymbolTableRecord
100
AcDbBlockTableRecord
  2
*D0
  0
BLOCK_RECORD
  5
214
100
AcDbSymbolTableRecord
100
AcDbBlockTableRecord
  2
*D1
  0
BLOCK_RECORD
  5
215
100
AcDbSymbolTableRecord
100
AcDbBlockTableRecord
  2
*D2
  0
BLOCK_RECORD
  5
216
100
AcDbSymbolTableRecord
100
AcDbBlockTableRecord
  2
*D3
  0
BLOCK_RECORD
  5
217
100
AcDbSymbolTableRecord
100
AcDbBlockTableRecord
  2
*D4
  0
BLOCK_RECORD
  5
218
100
AcDbSymbolTableRecord
100
AcDbBlockTableRecord
  2
CTQ_BL1
  0
BLOCK_RECORD
  5
219
100
AcDbSymbolTableRecord
100
AcDbBlockTableRecord
  2
FINISH_BL0
  0
ENDTAB
  0
TABLE
  2
DIMSTYLE
  5
A
100
AcDbSymbolTable
 70
1
100
AcDbDimStyleTable
 71
0
  0
DIMSTYLE
105
21A
100
AcDbSymbolTableRecord
100
AcDbDimStyleTableRecord
  2
STANDARD
 70
0
  3

  4

 40
1.0
 41
0.15
 42
0.0625
 43
0.38
 44
0.18
 45
0.0
 46
0.0
 47
0.005
 48
0.005
140
0.156
141
0.09
142
0.0
143
25.4
144
1.0
145
0.0
146
1.0
147
0.09
 71
1.0
 72
0.0
 73
1
 74
1
 75
0
 76
0
 77
0
 78
4
170
0
171
2
172
0
173
0
174
0
175
0
176
0
177
0
178
0
270
2
271
3
272
3
273
2
274
2
275
0
280
0
281
0
282
0
283
1
284
4
285
0
286
0
287
3
288
0
340
11
341
212
342
212
343
212
344
212
  0
DIMSTYLE
105
21B
100
AcDbSymbolTableRecord
100
AcDbDimStyleTableRecord
  2
DIMSTYLE_1
 70
0
  3

  4

 40
1.0
 41
0.15
 42
0.0625
 43
0.38
 44
0.18
 45
0.0
 46
0.0
 47
0.02
 48
0.02
140
0.156
141
0.09
142
0.0
143
25.4
144
3.0
145
0.0
146
1.0
147
0.09
 71
1.0
 72
0.0
 73
1
 74
1
 75
0
 76
0
 77
0
 78
4
170
0
171
2
172
0
173
0
174
0
175
0
176
0
177
0
178
0
270
2
271
2
272
2
273
2
274
2
275
0
280
0
281
0
282
0
283
1
284
4
285
0
286
0
287
3
288
0
340
11
341
212
342
212
343
212
344
212
  0
ENDTAB
  0
ENDSEC
  0
SECTION
  2
BLOCKS
  0
BLOCK
  5
20
100
AcDbEntity
  8
0
100
AcDbBlockBegin
  2
*Model_Space
 70
0
 10
0.0
 20
0.0
 30
0.0
  3
*Model_Space
  1

  0
ENDBLK
  5
21
100
AcDbEntity
  8
0
100
AcDbBlockEnd
  0
BLOCK
  5
1C
100
AcDbEntity
  8
0
100
AcDbBlockBegin
  2
*Paper_Space
 70
0
 10
0.0
 20
0.0
 30
0.0
  3
*Paper_Space
  1

  0
ENDBLK
  5
1D
100
AcDbEntity
  8
0
100
AcDbBlockEnd
  0
BLOCK
  5
21C
100
AcDbEntity
  8
0
100
AcDbBlockBegin
 62
2
  6
CONTINUOUS
  2
CTQ_BL1
 70
64
 10
8.8018612845
 20
0.4820942347
  3
CTQ_BL1
  1

  0
LINE
  5
21D
100
AcDbEntity
  8
0
100
AcDbLine
 62
7
  6
CONTINUOUS
 10
8.7101946178
 20
0.4806775889
 11
8.8575257783
 21
0.4806775889
  0
TEXT
  5
21E
100
AcDbEntity
  8
0
100
AcDbText
 62
2
  6
CONTINUOUS
 10
8.7101946178
 20
0.4320942347
  7
TEXTSTYLE_1
 40
0.1
  1
e
 41
1.0
 72
0
100
AcDbText
  0
ENDBLK
  5
21F
100
AcDbEntity
  8
0
  6
BYBLOCK
 62
0
100
AcDbBlockEnd
  0
BLOCK
  5
220
100
AcDbEntity
  8
0
100
AcDbBlockBegin
 62
2
  6
CONTINUOUS
  2
FINISH_BL0
 70
64
 10
10.0176993991
 20
0.6703820073
  3
FINISH_BL0
  1

  0
LINE
  5
221
100
AcDbEntity
  8
0
100
AcDbLine
 62
2
  6
CONTINUOUS
 10
9.9350866255
 20
0.673428072
 11
9.9913344977
 21
0.5760045073
  0
LINE
  5
222
100
AcDbEntity
  8
0
100
AcDbLine
 62
2
  6
CONTINUOUS
 10
9.9913344977
 20
0.5760045073
 11
10.1003121728
 21
0.7647595073
  0
ENDBLK
  5
223
100
AcDbEntity
  8
0
  6
BYBLOCK
 62
0
100
AcDbBlockEnd
  0
BLOCK
  5
224
100
AcDbEntity
  8
0
100
AcDbBlockBegin
  2
_FILLED
 70
64
 10
0.0
 20
0.0
  3
_FILLED
  1

  0
SOLID
  5
225
100
AcDbEntity
  8
0
  6
BYBLOCK
 62
0
100
AcDbTrace
 10
0.0
 20
0.0
 11
-1.0
 21
0.1666666667
 12
-1.0
 22
-0.1666666667
 13
-1.0
 23
-0.1666666667
  0
ENDBLK
  5
226
100
AcDbEntity
  8
0
  6
BYBLOCK
 62
0
100
AcDbBlockEnd
  0
BLOCK
  5
227
100
AcDbEntity
  8
0
100
AcDbBlockBegin
 62
2
  6
CONTINUOUS
  2
*D0
 70
65
 10
0.0
 20
0.0
  3
*D0
  1

  0
TEXT
  5
228
100
AcDbEntity
  8
0
100
AcDbText
 62
2
  6
CONTINUOUS
 10
5.1658622841
 20
7.9040382395
  7
STANDARD
 40
0.156
  1
4.10
 41
0.8
 72
1
 11
5.4154622841
 21
7.9040382395
100
AcDbText
  0
TEXT
  5
229
100
AcDbEntity
  8
0
100
AcDbText
 62
2
  6
CONTINUOUS
 10
5.6650622841
 20
7.9040382395
  7
TEXTSTYLE_1
 40
0.156
  1
`
 41
1.0
 72
1
 11
5.7560622841
 21
7.9040382395
100
AcDbText
  0
TEXT
  5
22A
100
AcDbEntity
  8
0
100
AcDbText
 62
2
  6
CONTINUOUS
 10
5.8470622841
 20
7.9040382395
  7
STANDARD
 40
0.156
  1
.02
 41
0.8
 72
1
 11
6.0342622841
 21
7.9040382395
100
AcDbText
  0
LINE
  5
22B
100
AcDbEntity
  8
0
100
AcDbLine
 62
2
  6
CONTINUOUS
 10
5.0103289507
 20
6.8174625305
 11
5.0103289507
 21
8.1070382395
  0
LINE
  5
22C
100
AcDbEntity
  8
0
100
AcDbLine
 62
2
  6
CONTINUOUS
 10
6.3769956174
 20
6.8174625305
 11
6.3769956174
 21
8.1070382395
  0
LINE
  5
22D
100
AcDbEntity
  8
0
100
AcDbLine
 62
2
  6
CONTINUOUS
 10
5.0103289507
 20
7.9820382395
 11
4.6603289507
 21
7.9820382395
  0
LINE
  5
22E
100
AcDbEntity
  8
0
100
AcDbLine
 62
2
  6
CONTINUOUS
 10
6.3769956174
 20
7.9820382395
 11
6.7269956174
 21
7.9820382395
  0
INSERT
  5
22F
100
AcDbEntity
  8
0
100
AcDbBlockReference
 62
2
  6
CONTINUOUS
  2
_FILLED
 10
5.0103289507
 20
7.9820382395
 41
0.15
 42
0.15
 43
0.15
  0
INSERT
  5
230
100
AcDbEntity
  8
0
100
AcDbBlockReference
 62
2
  6
CONTINUOUS
  2
_FILLED
 10
6.3769956174
 20
7.9820382395
 41
0.15
 42
0.15
 43
0.15
 50
180.0
  0
ENDBLK
  5
231
100
AcDbEntity
  8
0
  6
BYBLOCK
 62
0
100
AcDbBlockEnd
  0
BLOCK
  5
232
100
AcDbEntity
  8
0
100
AcDbBlockBegin
 62
2
  6
CONTINUOUS
  2
*D1
 70
65
 10
0.0
 20
0.0
  3
*D1
  1

  0
TEXT
  5
233
100
AcDbEntity
  8
0
100
AcDbText
 62
2
  6
CONTINUOUS
 10
9.5242829959
 20
5.7430836067
  7
STANDARD
 40
0.156
  1
6.90
 41
0.8
 72
1
 11
9.7738829959
 21
5.7430836067
100
AcDbText
  0
TEXT
  5
234
100
AcDbEntity
  8
0
100
AcDbText
 62
2
  6
CONTINUOUS
 10
10.0234829959
 20
5.7430836067
  7
TEXTSTYLE_1
 40
0.156
  1
`
 41
1.0
 72
1
 11
10.1144829959
 21
5.7430836067
100
AcDbText
  0
TEXT
  5
235
100
AcDbEntity
  8
0
100
AcDbText
 62
2
  6
CONTINUOUS
 10
10.2054829959
 20
5.7430836067
  7
STANDARD
 40
0.156
  1
.02
 41
0.8
 72
1
 11
10.3926829959
 21
5.7430836067
100
AcDbText
  0
LINE
  5
236
100
AcDbEntity
  8
0
100
AcDbLine
 62
2
  6
CONTINUOUS
 10
6.4394956174
 20
6.7549625305
 11
10.1770829959
 21
6.7549625305
  0
LINE
  5
237
100
AcDbEntity
  8
0
100
AcDbLine
 62
2
  6
CONTINUOUS
 10
6.4394956174
 20
4.4549625305
 11
10.1770829959
 21
4.4549625305
  0
LINE
  5
238
100
AcDbEntity
  8
0
100
AcDbLine
 62
2
  6
CONTINUOUS
 10
10.0520829959
 20
6.7549625305
 11
10.0520829959
 21
5.9770836067
  0
LINE
  5
239
100
AcDbEntity
  8
0
100
AcDbLine
 62
2
  6
CONTINUOUS
 10
10.0520829959
 20
4.4549625305
 11
10.0520829959
 21
5.6650836067
  0
INSERT
  5
23A
100
AcDbEntity
  8
0
100
AcDbBlockReference
 62
2
  6
CONTINUOUS
  2
_FILLED
 10
10.0520829959
 20
6.7549625305
 41
0.15
 42
0.15
 43
0.15
 50
90.0
  0
INSERT
  5
23B
100
AcDbEntity
  8
0
100
AcDbBlockReference
 62
2
  6
CONTINUOUS
  2
_FILLED
 10
10.0520829959
 20
4.4549625305
 41
0.15
 42
0.15
 43
0.15
 50
270.0
  0
ENDBLK
  5
23C
100
AcDbEntity
  8
0
  6
BYBLOCK
 62
0
100
AcDbBlockEnd
  0
BLOCK
  5
23D
100
AcDbEntity
  8
0
100
AcDbBlockBegin
 62
2
  6
CONTINUOUS
  2
*D2
 70
65
 10
0.0
 20
0.0
  3
*D2
  1

  0
TEXT
  5
23E
100
AcDbEntity
  8
0
100
AcDbText
 62
2
  6
CONTINUOUS
 10
7.4614676932
 20
5.7080925753
  7
STANDARD
 40
0.156
  1
4.00
 41
0.8
 72
1
 11
7.7110676932
 21
5.7080925753
100
AcDbText
  0
TEXT
  5
23F
100
AcDbEntity
  8
0
100
AcDbText
 62
2
  6
CONTINUOUS
 10
7.9606676932
 20
5.7080925753
  7
TEXTSTYLE_1
 40
0.156
  1
`
 41
1.0
 72
1
 11
8.0516676932
 21
5.7080925753
100
AcDbText
  0
TEXT
  5
240
100
AcDbEntity
  8
0
100
AcDbText
 62
2
  6
CONTINUOUS
 10
8.1426676932
 20
5.7080925753
  7
STANDARD
 40
0.156
  1
.02
 41
0.8
 72
1
 11
8.3298676932
 21
5.7080925753
100
AcDbText
  0
LINE
  5
241
100
AcDbEntity
  8
0
100
AcDbLine
 62
2
  6
CONTINUOUS
 10
6.6478289507
 20
6.2716291972
 11
8.1142676932
 21
6.2716291972
  0
LINE
  5
242
100
AcDbEntity
  8
0
100
AcDbLine
 62
2
  6
CONTINUOUS
 10
6.6478289507
 20
4.9382958638
 11
8.1142676932
 21
4.9382958638
  0
LINE
  5
243
100
AcDbEntity
  8
0
100
AcDbLine
 62
2
  6
CONTINUOUS
 10
7.9892676932
 20
6.2716291972
 11
7.9892676932
 21
5.9420925753
  0
LINE
  5
244
100
AcDbEntity
  8
0
100
AcDbLine
 62
2
  6
CONTINUOUS
 10
7.9892676932
 20
4.9382958638
 11
7.9892676932
 21
5.6300925753
  0
INSERT
  5
245
100
AcDbEntity
  8
0
100
AcDbBlockReference
 62
2
  6
CONTINUOUS
  2
_FILLED
 10
7.9892676932
 20
6.2716291972
 41
0.15
 42
0.15
 43
0.15
 50
90.0
  0
INSERT
  5
246
100
AcDbEntity
  8
0
100
AcDbBlockReference
 62
2
  6
CONTINUOUS
  2
_FILLED
 10
7.9892676932
 20
4.9382958638
 41
0.15
 42
0.15
 43
0.15
 50
270.0
  0
ENDBLK
  5
247
100
AcDbEntity
  8
0
  6
BYBLOCK
 62
0
100
AcDbBlockEnd
  0
BLOCK
  5
248
100
AcDbEntity
  8
0
100
AcDbBlockBegin
 62
2
  6
CONTINUOUS
  2
*D3
 70
65
 10
0.0
 20
0.0
  3
*D3
  1

  0
TEXT
  5
249
100
AcDbEntity
  8
0
100
AcDbText
 62
2
  6
CONTINUOUS
 10
8.7742829959
 20
5.3190746381
  7
STANDARD
 40
0.156
  1
6.00
 41
0.8
 72
1
 11
9.0238829959
 21
5.3190746381
100
AcDbText
  0
TEXT
  5
24A
100
AcDbEntity
  8
0
100
AcDbText
 62
2
  6
CONTINUOUS
 10
9.2734829959
 20
5.3190746381
  7
TEXTSTYLE_1
 40
0.156
  1
`
 41
1.0
 72
1
 11
9.3644829959
 21
5.3190746381
100
AcDbText
  0
TEXT
  5
24B
100
AcDbEntity
  8
0
100
AcDbText
 62
2
  6
CONTINUOUS
 10
9.4554829959
 20
5.3190746381
  7
STANDARD
 40
0.156
  1
.02
 41
0.8
 72
1
 11
9.6426829959
 21
5.3190746381
100
AcDbText
  0
LINE
  5
24C
100
AcDbEntity
  8
0
100
AcDbLine
 62
2
  6
CONTINUOUS
 10
6.6478289507
 20
6.6049625305
 11
9.4270829959
 21
6.6049625305
  0
LINE
  5
24D
100
AcDbEntity
  8
0
100
AcDbLine
 62
2
  6
CONTINUOUS
 10
6.6478289507
 20
4.6049625305
 11
9.4270829959
 21
4.6049625305
  0
LINE
  5
24E
100
AcDbEntity
  8
0
100
AcDbLine
 62
2
  6
CONTINUOUS
 10
9.3020829959
 20
6.6049625305
 11
9.3020829959
 21
5.5530746381
  0
LINE
  5
24F
100
AcDbEntity
  8
0
100
AcDbLine
 62
2
  6
CONTINUOUS
 10
9.3020829959
 20
4.6049625305
 11
9.3020829959
 21
5.2410746381
  0
INSERT
  5
250
100
AcDbEntity
  8
0
100
AcDbBlockReference
 62
2
  6
CONTINUOUS
  2
_FILLED
 10
9.3020829959
 20
6.6049625305
 41
0.15
 42
0.15
 43
0.15
 50
90.0
  0
INSERT
  5
251
100
AcDbEntity
  8
0
100
AcDbBlockReference
 62
2
  6
CONTINUOUS
  2
_FILLED
 10
9.3020829959
 20
4.6049625305
 41
0.15
 42
0.15
 43
0.15
 50
270.0
  0
ENDBLK
  5
252
100
AcDbEntity
  8
0
  6
BYBLOCK
 62
0
100
AcDbBlockEnd
  0
BLOCK
  5
253
100
AcDbEntity
  8
0
100
AcDbBlockBegin
 62
2
  6
CONTINUOUS
  2
*D4
 70
65
 10
0.0
 20
0.0
  3
*D4
  1

  0
TEXT
  5
254
100
AcDbEntity
  8
0
100
AcDbText
 62
2
  6
CONTINUOUS
 10
5.1658622841
 20
8.2790382395
  7
STANDARD
 40
0.156
  1
5.35
 41
0.8
 72
1
 11
5.4154622841
 21
8.2790382395
100
AcDbText
  0
TEXT
  5
255
100
AcDbEntity
  8
0
100
AcDbText
 62
2
  6
CONTINUOUS
 10
5.6650622841
 20
8.2790382395
  7
TEXTSTYLE_1
 40
0.156
  1
`
 41
1.0
 72
1
 11
5.7560622841
 21
8.2790382395
100
AcDbText
  0
TEXT
  5
256
100
AcDbEntity
  8
0
100
AcDbText
 62
2
  6
CONTINUOUS
 10
5.8470622841
 20
8.2790382395
  7
STANDARD
 40
0.156
  1
.02
 41
0.8
 72
1
 11
6.0342622841
 21
8.2790382395
100
AcDbText
  0
LINE
  5
257
100
AcDbEntity
  8
0
100
AcDbLine
 62
2
  6
CONTINUOUS
 10
6.5853289507
 20
6.6674625305
 11
6.5853289507
 21
8.4820382395
  0
LINE
  5
258
100
AcDbEntity
  8
0
100
AcDbLine
 62
2
  6
CONTINUOUS
 10
4.8019956174
 20
6.6674625305
 11
4.8019956174
 21
8.4820382395
  0
LINE
  5
259
100
AcDbEntity
  8
0
100
AcDbLine
 62
2
  6
CONTINUOUS
 10
6.5853289507
 20
8.3570382395
 11
6.2994622841
 21
8.3570382395
  0
LINE
  5
25A
100
AcDbEntity
  8
0
100
AcDbLine
 62
2
  6
CONTINUOUS
 10
4.8019956174
 20
8.3570382395
 11
5.0878622841
 21
8.3570382395
  0
INSERT
  5
25B
100
AcDbEntity
  8
0
100
AcDbBlockReference
 62
2
  6
CONTINUOUS
  2
_FILLED
 10
6.5853289507
 20
8.3570382395
 41
0.15
 42
0.15
 43
0.15
  0
INSERT
  5
25C
100
AcDbEntity
  8
0
100
AcDbBlockReference
 62
2
  6
CONTINUOUS
  2
_FILLED
 10
4.8019956174
 20
8.3570382395
 41
0.15
 42
0.15
 43
0.15
 50
180.0
  0
ENDBLK
  5
25D
100
AcDbEntity
  8
0
  6
BYBLOCK
 62
0
100
AcDbBlockEnd
  0
ENDSEC
  0
SECTION
  2
ENTITIES
  0
MTEXT
  5
25E
100
AcDbEntity
  8
0
100
AcDbMText
 62
2
  6
CONTINUOUS
  7
TEXTSTYLE_2
 71
1
 72
1
 10
0.6809823756
 20
1.1080008359
 30
0.0
 11
1.0
 21
0.0
 31
0.0
 44
0.9
  1
THIRD ANGLE PROJECTION
 40
0.063
 41
1.839599
  0
MTEXT
  5
25F
100
AcDbEntity
  8
0
100
AcDbMText
 62
2
  6
CONTINUOUS
  7
TEXTSTYLE_3
 71
1
 72
1
 10
12.4737647281
 20
2.1398709693
 30
0.0
 11
1.0
 21
0.0
 31
0.0
 44
0.9
  1
Digital Energy\PMultilin
 40
0.1
 41
0.8670588235
  0
INSERT
  5
260
100
AcDbEntity
  8
0
100
AcDbBlockReference
 62
2
  6
CONTINUOUS
  2
FINISH_BL0
 10
10.0176993991
 20
0.6703820073
  0
INSERT
  5
261
100
AcDbEntity
  8
0
100
AcDbBlockReference
 62
2
  6
CONTINUOUS
  2
CTQ_BL1
 10
8.8018612845
 20
0.4820942347
  0
DIMENSION
  5
262
100
AcDbEntity
  8
0
100
AcDbDimension
 62
2
  6
CONTINUOUS
  2
*D0
 10
6.3769956174
 20
7.9820382395
 11
5.4752622841
 21
7.9820382395
 70
160
 71
2
 42
4.1
  3
DIMSTYLE_1
100
AcDbAlignedDimension
 13
5.0103289507
 23
6.8174625305
 14
6.3769956174
 24
6.8174625305
100
AcDbRotatedDimension
  0
DIMENSION
  5
263
100
AcDbEntity
  8
0
100
AcDbDimension
 62
2
  6
CONTINUOUS
  2
*D1
 10
10.0520829959
 20
4.4549625305
 11
9.8336829959
 21
5.8210836067
 70
160
 71
2
 42
6.9
  3
DIMSTYLE_1
100
AcDbAlignedDimension
 13
6.4394956174
 23
6.7549625305
 14
6.4394956174
 24
4.4549625305
 50
270.0
100
AcDbRotatedDimension
  0
DIMENSION
  5
264
100
AcDbEntity
  8
0
100
AcDbDimension
 62
2
  6
CONTINUOUS
  2
*D2
 10
7.9892676932
 20
4.9382958638
 11
7.7708676932
 21
5.7860925753
 70
160
 71
2
 42
4.0
  3
DIMSTYLE_1
100
AcDbAlignedDimension
 13
6.6478289507
 23
6.2716291972
 14
6.6478289507
 24
4.9382958638
 50
270.0
100
AcDbRotatedDimension
  0
DIMENSION
  5
265
100
AcDbEntity
  8
0
100
AcDbDimension
 62
2
  6
CONTINUOUS
  2
*D3
 10
9.3020829959
 20
4.6049625305
 11
9.0836829959
 21
5.3970746381
 70
160
 71
2
 42
6.0
  3
DIMSTYLE_1
100
AcDbAlignedDimension
 13
6.6478289507
 23
6.6049625305
 14
6.6478289507
 24
4.6049625305
 50
270.0
100
AcDbRotatedDimension
  0
DIMENSION
  5
266
100
AcDbEntity
  8
0
100
AcDbDimension
 62
2
  6
CONTINUOUS
  2
*D4
 10
4.8019956174
 20
8.3570382395
 11
5.4752622841
 21
8.3570382395
 70
160
 71
2
 42
5.35
  3
DIMSTYLE_1
100
AcDbAlignedDimension
 13
6.5853289507
 23
6.6674625305
 14
4.8019956174
 24
6.6674625305
 50
180.0
100
AcDbRotatedDimension
  0
LINE
  5
267
100
AcDbEntity
  8
0
100
AcDbLine
 62
2
  6
CONTINUOUS
 10
6.6974996482
 20
10.62
 11
10.7599996482
 21
10.62
  0
LINE
  5
268
100
AcDbEntity
  8
0
100
AcDbLine
 62
2
  6
CONTINUOUS
 10
6.6974996482
 20
10.62
 11
6.6974996482
 21
9.595
  0
LINE
  5
269
100
AcDbEntity
  8
0
100
AcDbLine
 62
2
  6
CONTINUOUS
 10
6.6974996482
 20
9.595
 11
10.7599996482
 21
9.595
  0
LINE
  5
26A
100
AcDbEntity
  8
0
100
AcDbLine
 62
2
  6
CONTINUOUS
 10
10.7599996482
 20
10.62
 11
10.7599996482
 21
9.595
  0
MTEXT
  5
26B
100
AcDbEntity
  8
0
100
AcDbMText
 62
2
  6
CONTINUOUS
  7
TEXTSTYLE_4
 71
2
 72
1
 10
8.7287496482
 20
10.575
 30
0.0
 11
1.0
 21
0.0
 31
0.0
 44
0.75
  1
GE PROPRIETARY AND CONFIDENTIAL INFORMATION
 40
0.09
 41
3.483
  0
MTEXT
  5
26C
100
AcDbEntity
  8
0
100
AcDbMText
 62
2
  6
CONTINUOUS
  7
TEXTSTYLE_5
 71
2
 72
1
 10
8.7287496482
 20
10.37825
 30
0.0
 11
1.0
 21
0.0
 31
0.0
 44
0.75
  3
This document is the property of General Electric Company ("GE") and contains \Pproprietary information of GE.  This document is loaned on the express condition \Pthat neither it nor the information contained therein shall be disclosed to \Pothers wi
  3
thout the express written consent of GE Industrial Systems, and that \Pthe information shall be used by the recipient only as approved expressly by \PGE Industrial Systems. This document shall be returned to GE upon its request. \PThis document may b
  1
e subject to certain restrictions under \PU.S. export control laws and regulations.
 40
0.074
 41
3.8961
  0
LINE
  5
26D
100
AcDbEntity
  8
0
100
AcDbLine
 62
2
  6
CONTINUOUS
 10
12.04
 20
2.255
 11
16.38
 21
2.255
  0
LINE
  5
26E
100
AcDbEntity
  8
0
100
AcDbLine
 62
2
  6
CONTINUOUS
 10
12.04
 20
2.255
 11
12.04
 21
0.3825
  0
LINE
  5
26F
100
AcDbEntity
  8
0
100
AcDbLine
 62
2
  6
CONTINUOUS
 10
12.04
 20
1.7675
 11
16.38
 21
1.7675
  0
LINE
  5
270
100
AcDbEntity
  8
0
100
AcDbLine
 62
2
  6
CONTINUOUS
 10
12.04
 20
1.5325
 11
16.38
 21
1.5325
  0
LINE
  5
271
100
AcDbEntity
  8
0
100
AcDbLine
 62
2
  6
CONTINUOUS
 10
12.04
 20
0.9825
 11
16.38
 21
0.9825
  0
LINE
  5
272
100
AcDbEntity
  8
0
100
AcDbLine
 62
2
  6
CONTINUOUS
 10
12.04
 20
0.6125
 11
16.38
 21
0.6125
  0
LINE
  5
273
100
AcDbEntity
  8
0
100
AcDbLine
 62
2
  6
CONTINUOUS
 10
12.04
 20
0.3825
 11
16.38
 21
0.3825
  0
LINE
  5
274
100
AcDbEntity
  8
0
100
AcDbLine
 62
2
  6
CONTINUOUS
 10
12.415
 20
0.9825
 11
12.415
 21
0.6125
  0
LINE
  5
275
100
AcDbEntity
  8
0
100
AcDbLine
 62
2
  6
CONTINUOUS
 10
13.155
 20
0.6125
 11
13.155
 21
0.3825
  0
LINE
  5
276
100
AcDbEntity
  8
0
100
AcDbLine
 62
2
  6
CONTINUOUS
 10
15.58
 20
0.6125
 11
15.58
 21
0.3825
  0
LINE
  5
277
100
AcDbEntity
  8
0
100
AcDbLine
 62
2
  6
CONTINUOUS
 10
15.88
 20
0.9825
 11
15.88
 21
0.6125
  0
LINE
  5
278
100
AcDbEntity
  8
0
100
AcDbLine
 62
2
  6
CONTINUOUS
 10
16.38
 20
2.255
 11
16.38
 21
0.3825
  0
MTEXT
  5
279
100
AcDbEntity
  8
0
100
AcDbMText
 62
2
  6
CONTINUOUS
  7
STANDARD
 71
1
 72
1
 10
12.1025
 20
1.725
 30
0.0
 11
1.0
 21
0.0
 31
0.0
 44
0.9
  1
650 MARKLAND ST.\PMARKHAM, ON, CANADA L6C 0M1
 40
0.06
 41
1.296
  0
MTEXT
  5
27A
100
AcDbEntity
  8
0
100
AcDbMText
 62
2
  6
CONTINUOUS
  7
STANDARD
 71
3
 72
1
 10
16.3175
 20
1.725
 30
0.0
 11
1.0
 21
0.0
 31
0.0
 44
0.9
  1
TEL: (905)927-7070 FAX: (905)927-5098\PINTERNET: http://www.gedigitalenergy.com
 40
0.06
 41
1.92
  0
MTEXT
  5
27B
100
AcDbEntity
  8
0
100
AcDbMText
 62
2
  6
CONTINUOUS
  7
TEXTSTYLE_7
 71
1
 72
1
 10
12.1025
 20
1.454375
 30
0.0
 11
1.0
 21
0.0
 31
0.0
 44
0.9
  1
TITLE
 40
0.08
 41
0.38
  0
MTEXT
  5
27C
100
AcDbEntity
  8
0
100
AcDbMText
 62
2
  6
CONTINUOUS
  7
TEXTSTYLE_6
 71
2
 72
1
 10
14.21
 20
1.455125
 30
0.0
 11
1.0
 21
0.0
 31
0.0
 44
0.9
  1
CUSTOMER PANEL
 40
0.157
 41
1.7060666667
  0
MTEXT
  5
27D
100
AcDbEntity
  8
0
100
AcDbMText
 62
2
  6
CONTINUOUS
  7
TEXTSTYLE_6
 71
2
 72
1
 10
14.21
 20
1.16375
 30
0.0
 11
1.0
 21
0.0
 31
0.0
 44
0.9
  1
CUTOUT
 40
0.125
 41
0.575
  0
MTEXT
  5
27E
100
AcDbEntity
  8
0
100
AcDbMText
 62
2
  6
CONTINUOUS
  7
TEXTSTYLE_7
 71
1
 72
1
 10
12.1025
 20
0.9625
 30
0.0
 11
1.0
 21
0.0
 31
0.0
 44
0.9
  1
SIZE
 40
0.08
 41
0.304
  0
MTEXT
  5
27F
100
AcDbEntity
  8
0
100
AcDbMText
 62
2
  6
CONTINUOUS
  7
STANDARD
 71
1
 72
1
 10
12.4775
 20
0.9625
 30
0.0
 11
1.0
 21
0.0
 31
0.0
 44
0.9
  1
DRAWING
 40
0.08
 41
0.448
  0
MTEXT
  5
280
100
AcDbEntity
  8
0
100
AcDbMText
 62
2
  6
CONTINUOUS
  7
TEXTSTYLE_7
 71
1
 72
1
 10
15.9425
 20
0.9625
 30
0.0
 11
1.0
 21
0.0
 31
0.0
 44
0.9
  1
REV
 40
0.08
 41
0.228
  0
MTEXT
  5
281
100
AcDbEntity
  8
0
100
AcDbMText
 62
2
  6
CONTINUOUS
  7
STANDARD
 71
2
 72
1
 10
12.2275
 20
0.815625
 30
0.0
 11
1.0
 21
0.0
 31
0.0
 44
0.9
  1
B
 40
0.15625
 41
0.125
  0
MTEXT
  5
282
100
AcDbEntity
  8
0
100
AcDbMText
 62
2
  6
CONTINUOUS
  7
TEXTSTYLE_6
 71
2
 72
1
 10
14.42375
 20
0.8375
 30
0.0
 11
1.0
 21
0.0
 31
0.0
 44
0.9
  1
898403
 40
0.2
 41
0.8933333333
  0
MTEXT
  5
283
100
AcDbEntity
  8
0
100
AcDbMText
 62
2
  6
CONTINUOUS
  7
TEXTSTYLE_6
 71
2
 72
1
 10
16.13
 20
0.8375
 30
0.0
 11
1.0
 21
0.0
 31
0.0
 44
0.9
  1
A1
 40
0.2
 41
0.2266666667
  0
MTEXT
  5
284
100
AcDbEntity
  8
0
100
AcDbMText
 62
2
  6
CONTINUOUS
  7
TEXTSTYLE_8
 71
1
 72
1
 10
12.1025
 20
0.5375
 30
0.0
 11
1.0
 21
0.0
 31
0.0
 44
0.9
  1
SCALE: {\W1.0;0.333}
 40
0.08
 41
1.0272
  0
MTEXT
  5
285
100
AcDbEntity
  8
0
100
AcDbMText
 62
2
  6
CONTINUOUS
  7
TEXTSTYLE_10
 71
1
 72
1
 10
15.6425
 20
0.5375
 30
0.0
 11
1.0
 21
0.0
 31
0.0
 44
0.9
  1
SHEET 1\H0.05;{\W0.65; OF }\H0.08;1
 40
0.08
 41
0.578
  0
LINE
  5
286
100
AcDbEntity
  8
0
100
AcDbLine
 62
2
  6
CONTINUOUS
 10
8.978525945
 20
10.97
 11
13.041025945
 21
10.97
  0
LINE
  5
287
100
AcDbEntity
  8
0
100
AcDbLine
 62
2
  6
CONTINUOUS
 10
8.978525945
 20
10.97
 11
8.978525945
 21
10.62
  0
LINE
  5
288
100
AcDbEntity
  8
0
100
AcDbLine
 62
2
  6
CONTINUOUS
 10
8.978525945
 20
10.62
 11
13.041025945
 21
10.62
  0
LINE
  5
289
100
AcDbEntity
  8
0
100
AcDbLine
 62
2
  6
CONTINUOUS
 10
9.291025945
 20
10.97
 11
9.291025945
 21
10.62
  0
LINE
  5
28A
100
AcDbEntity
  8
0
100
AcDbLine
 62
2
  6
CONTINUOUS
 10
12.041025945
 20
10.97
 11
12.041025945
 21
10.62
  0
LINE
  5
28B
100
AcDbEntity
  8
0
100
AcDbLine
 62
2
  6
CONTINUOUS
 10
12.541025945
 20
10.97
 11
12.541025945
 21
10.62
  0
LINE
  5
28C
100
AcDbEntity
  8
0
100
AcDbLine
 62
2
  6
CONTINUOUS
 10
13.041025945
 20
10.97
 11
13.041025945
 21
10.62
  0
MTEXT
  5
28D
100
AcDbEntity
  8
0
100
AcDbMText
 62
2
  6
CONTINUOUS
  7
TEXTSTYLE_11
 71
1
 72
1
 10
9.041025945
 20
10.9425
 30
0.0
 11
1.0
 21
0.0
 31
0.0
 44
0.9
  1
SIZE
 40
0.045
 41
0.2370006
  0
MTEXT
  5
28E
100
AcDbEntity
  8
0
100
AcDbMText
 62
2
  6
CONTINUOUS
  7
TEXTSTYLE_11
 71
1
 72
1
 10
9.353525945
 20
10.9425
 30
0.0
 11
1.0
 21
0.0
 31
0.0
 44
0.9
  1
DRAWING NO.
 40
0.045
 41
0.65175165
  0
MTEXT
  5
28F
100
AcDbEntity
  8
0
100
AcDbMText
 62
2
  6
CONTINUOUS
  7
TEXTSTYLE_11
 71
1
 72
1
 10
12.103525945
 20
10.9425
 30
0.0
 11
1.0
 21
0.0
 31
0.0
 44
0.9
  1
REV
 40
0.045
 41
0.17775045
  0
MTEXT
  5
290
100
AcDbEntity
  8
0
100
AcDbMText
 62
2
  6
CONTINUOUS
  7
TEXTSTYLE_11
 71
1
 72
1
 10
12.603525945
 20
10.9425
 30
0.0
 11
1.0
 21
0.0
 31
0.0
 44
0.9
  1
SHEET
 40
0.045
 41
0.29625075
  0
MTEXT
  5
291
100
AcDbEntity
  8
0
100
AcDbMText
 62
2
  6
CONTINUOUS
  7
STANDARD
 71
1
 72
1
 10
9.041025945
 20
10.823125
 30
0.0
 11
1.0
 21
0.0
 31
0.0
 44
0.9
  1
B
 40
0.15625
 41
0.125
  0
MTEXT
  5
292
100
AcDbEntity
  8
0
100
AcDbMText
 62
2
  6
CONTINUOUS
  7
TEXTSTYLE_6
 71
2
 72
1
 10
10.666025945
 20
10.83
 30
0.0
 11
1.0
 21
0.0
 31
0.0
 44
0.9
  1
898403
 40
0.17
 41
0.7593333333
  0
MTEXT
  5
293
100
AcDbEntity
  8
0
100
AcDbMText
 62
2
  6
CONTINUOUS
  7
STANDARD
 71
1
 72
1
 10
12.603525945
 20
10.823125
 30
0.0
 11
1.0
 21
0.0
 31
0.0
 44
0.9
  1
1
 40
0.15625
 41
0.125
  0
LINE
  5
294
100
AcDbEntity
  8
0
100
AcDbLine
 62
2
  6
CONTINUOUS
 10
10.76
 20
10.62
 11
16.38
 21
10.62
  0
LINE
  5
295
100
AcDbEntity
  8
0
100
AcDbLine
 62
2
  6
CONTINUOUS
 10
10.76
 20
10.62
 11
10.76
 21
9.37
  0
LINE
  5
296
100
AcDbEntity
  8
0
100
AcDbLine
 62
2
  6
CONTINUOUS
 10
10.76
 20
10.37
 11
16.38
 21
10.37
  0
LINE
  5
297
100
AcDbEntity
  8
0
100
AcDbLine
 62
2
  6
CONTINUOUS
 10
10.76
 20
10.12
 11
16.38
 21
10.12
  0
LINE
  5
298
100
AcDbEntity
  8
0
100
AcDbLine
 62
2
  6
CONTINUOUS
 10
10.76
 20
9.87
 11
16.38
 21
9.87
  0
LINE
  5
299
100
AcDbEntity
  8
0
100
AcDbLine
 62
2
  6
CONTINUOUS
 10
10.76
 20
9.62
 11
16.38
 21
9.62
  0
LINE
  5
29A
100
AcDbEntity
  8
0
100
AcDbLine
 62
2
  6
CONTINUOUS
 10
10.76
 20
9.37
 11
16.38
 21
9.37
  0
LINE
  5
29B
100
AcDbEntity
  8
0
100
AcDbLine
 62
2
  6
CONTINUOUS
 10
11.14
 20
10.37
 11
11.14
 21
9.37
  0
LINE
  5
29C
100
AcDbEntity
  8
0
100
AcDbLine
 62
2
  6
CONTINUOUS
 10
11.89
 20
10.37
 11
11.89
 21
9.37
  0
LINE
  5
29D
100
AcDbEntity
  8
0
100
AcDbLine
 62
2
  6
CONTINUOUS
 10
12.59
 20
10.37
 11
12.59
 21
9.37
  0
LINE
  5
29E
100
AcDbEntity
  8
0
100
AcDbLine
 62
2
  6
CONTINUOUS
 10
13.09
 20
10.37
 11
13.09
 21
9.37
  0
LINE
  5
29F
100
AcDbEntity
  8
0
100
AcDbLine
 62
2
  6
CONTINUOUS
 10
13.59
 20
10.37
 11
13.59
 21
9.37
  0
LINE
  5
2A0
100
AcDbEntity
  8
0
100
AcDbLine
 62
2
  6
CONTINUOUS
 10
16.38
 20
10.62
 11
16.38
 21
9.37
  0
MTEXT
  5
2A1
100
AcDbEntity
  8
0
100
AcDbMText
 62
2
  6
CONTINUOUS
  7
STANDARD
 71
2
 72
1
 10
13.57
 20
10.52
 30
0.0
 11
1.0
 21
0.0
 31
0.0
 44
0.9
  1
REVISIONS
 40
0.1
 41
0.72
  0
MTEXT
  5
2A2
100
AcDbEntity
  8
0
100
AcDbMText
 62
2
  6
CONTINUOUS
  7
STANDARD
 71
2
 72
1
 10
10.95
 20
10.27
 30
0.0
 11
1.0
 21
0.0
 31
0.0
 44
0.9
  1
REV.
 40
0.1
 41
0.32
  0
MTEXT
  5
2A3
100
AcDbEntity
  8
0
100
AcDbMText
 62
2
  6
CONTINUOUS
  7
STANDARD
 71
2
 72
1
 10
11.515
 20
10.27
 30
0.0
 11
1.0
 21
0.0
 31
0.0
 44
0.9
  1
DATE
 40
0.1
 41
0.32
  0
MTEXT
  5
2A4
100
AcDbEntity
  8
0
100
AcDbMText
 62
2
  6
CONTINUOUS
  7
STANDARD
 71
2
 72
1
 10
12.24
 20
10.27
 30
0.0
 11
1.0
 21
0.0
 31
0.0
 44
0.9
  1
ECO#
 40
0.1
 41
0.32
  0
MTEXT
  5
2A5
100
AcDbEntity
  8
0
100
AcDbMText
 62
2
  6
CONTINUOUS
  7
STANDARD
 71
2
 72
1
 10
12.84
 20
10.27
 30
0.0
 11
1.0
 21
0.0
 31
0.0
 44
0.9
  1
DWN
 40
0.1
 41
0.24
  0
MTEXT
  5
2A6
100
AcDbEntity
  8
0
100
AcDbMText
 62
2
  6
CONTINUOUS
  7
STANDARD
 71
2
 72
1
 10
13.34
 20
10.27
 30
0.0
 11
1.0
 21
0.0
 31
0.0
 44
0.9
  1
APP
 40
0.1
 41
0.24
  0
MTEXT
  5
2A7
100
AcDbEntity
  8
0
100
AcDbMText
 62
2
  6
CONTINUOUS
  7
STANDARD
 71
2
 72
1
 10
14.985
 20
10.32
 30
0.0
 11
1.0
 21
0.0
 31
0.0
 44
0.9
  1
DESCRIPTION
 40
0.1
 41
0.88
  0
LINE
  5
2A8
100
AcDbEntity
  8
0
100
AcDbLine
 62
2
  6
CONTINUOUS
 10
10.10999693
 20
2.255
 11
12.03999693
 21
2.255
  0
LINE
  5
2A9
100
AcDbEntity
  8
0
100
AcDbLine
 62
2
  6
CONTINUOUS
 10
10.10999693
 20
2.255
 11
10.10999693
 21
0.3805
  0
LINE
  5
2AA
100
AcDbEntity
  8
0
100
AcDbLine
 62
2
  6
CONTINUOUS
 10
10.10999693
 20
2.055
 11
12.03999693
 21
2.055
  0
LINE
  5
2AB
100
AcDbEntity
  8
0
100
AcDbLine
 62
2
  6
CONTINUOUS
 10
10.10999693
 20
1.855
 11
12.03999693
 21
1.855
  0
LINE
  5
2AC
100
AcDbEntity
  8
0
100
AcDbLine
 62
2
  6
CONTINUOUS
 10
10.10999693
 20
1.655
 11
12.03999693
 21
1.655
  0
LINE
  5
2AD
100
AcDbEntity
  8
0
100
AcDbLine
 62
2
  6
CONTINUOUS
 10
10.10999693
 20
1.455
 11
12.03999693
 21
1.455
  0
LINE
  5
2AE
100
AcDbEntity
  8
0
100
AcDbLine
 62
2
  6
CONTINUOUS
 10
10.10999693
 20
1.234
 11
12.03999693
 21
1.234
  0
LINE
  5
2AF
100
AcDbEntity
  8
0
100
AcDbLine
 62
2
  6
CONTINUOUS
 10
10.10999693
 20
0.792
 11
12.03999693
 21
0.792
  0
LINE
  5
2B0
100
AcDbEntity
  8
0
100
AcDbLine
 62
2
  6
CONTINUOUS
 10
10.10999693
 20
0.655
 11
12.03999693
 21
0.655
  0
LINE
  5
2B1
100
AcDbEntity
  8
0
100
AcDbLine
 62
2
  6
CONTINUOUS
 10
10.10999693
 20
0.518
 11
12.03999693
 21
0.518
  0
LINE
  5
2B2
100
AcDbEntity
  8
0
100
AcDbLine
 62
2
  6
CONTINUOUS
 10
10.10999693
 20
0.3805
 11
12.03999693
 21
0.3805
  0
LINE
  5
2B3
100
AcDbEntity
  8
0
100
AcDbLine
 62
2
  6
CONTINUOUS
 10
10.75699693
 20
2.055
 11
10.75699693
 21
1.455
  0
LINE
  5
2B4
100
AcDbEntity
  8
0
100
AcDbLine
 62
2
  6
CONTINUOUS
 10
11.40399693
 20
2.255
 11
11.40399693
 21
1.455
  0
LINE
  5
2B5
100
AcDbEntity
  8
0
100
AcDbLine
 62
2
  6
CONTINUOUS
 10
12.03999693
 20
2.255
 11
12.03999693
 21
0.3805
  0
MTEXT
  5
2B6
100
AcDbEntity
  8
0
100
AcDbMText
 62
2
  6
CONTINUOUS
  7
TEXTSTYLE_12
 71
2
 72
1
 10
10.75699693
 20
2.195
 30
0.0
 11
1.0
 21
0.0
 31
0.0
 44
0.9
  1
SIGNATURES
 40
0.08
 41
1.024
  0
MTEXT
  5
2B7
100
AcDbEntity
  8
0
100
AcDbMText
 62
2
  6
CONTINUOUS
  7
TEXTSTYLE_12
 71
2
 72
1
 10
11.72199693
 20
2.195
 30
0.0
 11
1.0
 21
0.0
 31
0.0
 44
0.9
  1
DATE
 40
0.08
 41
0.4096
  0
MTEXT
  5
2B8
100
AcDbEntity
  8
0
100
AcDbMText
 62
2
  6
CONTINUOUS
  7
TEXTSTYLE_10
 71
1
 72
1
 10
10.17249693
 20
1.976875
 30
0.0
 11
1.0
 21
0.0
 31
0.0
 44
0.9
  1
MODEL
 40
0.063
 41
0.2205
  0
MTEXT
  5
2B9
100
AcDbEntity
  8
0
100
AcDbMText
 62
2
  6
CONTINUOUS
  7
STANDARD
 71
2
 72
1
 10
11.08049693
 20
2.005
 30
0.0
 11
1.0
 21
0.0
 31
0.0
 44
0.9
  1
.
 40
0.1
 41
0.08
  0
MTEXT
  5
2BA
100
AcDbEntity
  8
0
100
AcDbMText
 62
2
  6
CONTINUOUS
  7
STANDARD
 71
2
 72
1
 10
11.72199693
 20
2.005
 30
0.0
 11
1.0
 21
0.0
 31
0.0
 44
0.9
  1
.
 40
0.1
 41
0.08
  0
MTEXT
  5
2BB
100
AcDbEntity
  8
0
100
AcDbMText
 62
2
  6
CONTINUOUS
  7
TEXTSTYLE_10
 71
1
 72
1
 10
10.17249693
 20
1.776875
 30
0.0
 11
1.0
 21
0.0
 31
0.0
 44
0.9
  1
DETAIL
 40
0.063
 41
0.2646
  0
MTEXT
  5
2BC
100
AcDbEntity
  8
0
100
AcDbMText
 62
2
  6
CONTINUOUS
  7
STANDARD
 71
2
 72
1
 10
11.08049693
 20
1.805
 30
0.0
 11
1.0
 21
0.0
 31
0.0
 44
0.9
  1
.
 40
0.1
 41
0.08
  0
MTEXT
  5
2BD
100
AcDbEntity
  8
0
100
AcDbMText
 62
2
  6
CONTINUOUS
  7
STANDARD
 71
2
 72
1
 10
11.72199693
 20
1.805
 30
0.0
 11
1.0
 21
0.0
 31
0.0
 44
0.9
  1
.
 40
0.1
 41
0.08
  0
MTEXT
  5
2BE
100
AcDbEntity
  8
0
100
AcDbMText
 62
2
  6
CONTINUOUS
  7
TEXTSTYLE_10
 71
1
 72
1
 10
10.17249693
 20
1.576875
 30
0.0
 11
1.0
 21
0.0
 31
0.0
 44
0.9
  1
CHECKED
 40
0.063
 41
0.3087
  0
MTEXT
  5
2BF
100
AcDbEntity
  8
0
100
AcDbMText
 62
2
  6
CONTINUOUS
  7
STANDARD
 71
2
 72
1
 10
11.08049693
 20
1.605
 30
0.0
 11
1.0
 21
0.0
 31
0.0
 44
0.9
  1
.
 40
0.1
 41
0.08
  0
MTEXT
  5
2C0
100
AcDbEntity
  8
0
100
AcDbMText
 62
2
  6
CONTINUOUS
  7
STANDARD
 71
2
 72
1
 10
11.72199693
 20
1.605
 30
0.0
 11
1.0
 21
0.0
 31
0.0
 44
0.9
  1
.
 40
0.1
 41
0.08
  0
MTEXT
  5
2C1
100
AcDbEntity
  8
0
100
AcDbMText
 62
2
  6
CONTINUOUS
  7
TEXTSTYLE_13
 71
1
 72
1
 10
10.17249693
 20
1.1735
 30
0.0
 11
1.0
 21
0.0
 31
0.0
 44
0.9
  1
WHERE USED
 40
0.1
 41
0.55
  0
MTEXT
  5
2C2
100
AcDbEntity
  8
0
100
AcDbMText
 62
2
  6
CONTINUOUS
  7
TEXTSTYLE_13
 71
1
 72
1
 10
10.17249693
 20
0.9525
 30
0.0
 11
1.0
 21
0.0
 31
0.0
 44
0.9
  1
0.000, 0.000, 0.000
 40
0.1
 41
1.045
  0
MTEXT
  5
2C3
100
AcDbEntity
  8
0
100
AcDbMText
 62
2
  6
CONTINUOUS
  7
TEXTSTYLE_14
 71
1
 72
1
 10
10.17249693
 20
0.7485
 30
0.0
 11
1.0
 21
0.0
 31
0.0
 44
0.9
  1
DRAWING FILE:
 40
0.05
 41
0.39
  0
MTEXT
  5
2C4
100
AcDbEntity
  8
0
100
AcDbMText
 62
2
  6
CONTINUOUS
  7
TEXTSTYLE_10
 71
1
 72
1
 10
10.81949693
 20
0.7585
 30
0.0
 11
1.0
 21
0.0
 31
0.0
 44
0.9
  1
898403-PANEL-CUTOUT
 40
0.07
 41
0.931
  0
MTEXT
  5
2C5
100
AcDbEntity
  8
0
100
AcDbMText
 62
2
  6
CONTINUOUS
  7
TEXTSTYLE_14
 71
1
 72
1
 10
10.17249693
 20
0.6115
 30
0.0
 11
1.0
 21
0.0
 31
0.0
 44
0.9
  1
FILE LOCATION:
 40
0.05
 41
0.42
  0
MTEXT
  5
2C6
100
AcDbEntity
  8
0
100
AcDbMText
 62
2
  6
CONTINUOUS
  7
TEXTSTYLE_10
 71
1
 72
1
 10
10.81949693
 20
0.6215
 30
0.0
 11
1.0
 21
0.0
 31
0.0
 44
0.9
  1
0.000
 40
0.07
 41
0.245
  0
MTEXT
  5
2C7
100
AcDbEntity
  8
0
100
AcDbMText
 62
2
  6
CONTINUOUS
  7
TEXTSTYLE_14
 71
1
 72
1
 10
10.17249693
 20
0.47425
 30
0.0
 11
1.0
 21
0.0
 31
0.0
 44
0.9
  1
SOFTWARE TOOL:
 40
0.05
 41
0.42
  0
MTEXT
  5
2C8
100
AcDbEntity
  8
0
100
AcDbMText
 62
2
  6
CONTINUOUS
  7
TEXTSTYLE_10
 71
1
 72
1
 10
10.81949693
 20
0.48425
 30
0.0
 11
1.0
 21
0.0
 31
0.0
 44
0.9
  1
Pro/ENGINEER
 40
0.07
 41
0.588
  0
LINE
  5
2C9
100
AcDbEntity
  8
0
100
AcDbLine
 62
2
  6
CONTINUOUS
 10
10.1099967037
 20
0.38
 11
8.6599967037
 21
0.38
  0
LINE
  5
2CA
100
AcDbEntity
  8
0
100
AcDbLine
 62
2
  6
CONTINUOUS
 10
10.1099967037
 20
0.38
 11
10.1099967037
 21
2.255
  0
LINE
  5
2CB
100
AcDbEntity
  8
0
100
AcDbLine
 62
2
  6
CONTINUOUS
 10
10.1099967037
 20
0.5768503937
 11
8.6599967037
 21
0.5768503937
  0
LINE
  5
2CC
100
AcDbEntity
  8
0
100
AcDbLine
 62
2
  6
CONTINUOUS
 10
10.1099967037
 20
1.755
 11
8.6599967037
 21
1.755
  0
LINE
  5
2CD
100
AcDbEntity
  8
0
100
AcDbLine
 62
2
  6
CONTINUOUS
 10
10.1099967037
 20
1.905
 11
8.6599967037
 21
1.905
  0
LINE
  5
2CE
100
AcDbEntity
  8
0
100
AcDbLine
 62
2
  6
CONTINUOUS
 10
10.1099967037
 20
2.255
 11
8.6599967037
 21
2.255
  0
LINE
  5
2CF
100
AcDbEntity
  8
0
100
AcDbLine
 62
2
  6
CONTINUOUS
 10
8.6599967037
 20
0.38
 11
8.6599967037
 21
2.255
  0
MTEXT
  5
2D0
100
AcDbEntity
  8
0
100
AcDbMText
 62
2
  6
CONTINUOUS
  7
TEXTSTYLE_9
 71
1
 72
1
 10
8.9224967037
 20
0.5532283465
 30
0.0
 11
1.0
 21
0.0
 31
0.0
 44
0.9
  1
CRITICAL TO QUALITY\PCHARACTERISTIC
 40
0.0598425197
 41
1.137007874
  0
MTEXT
  5
2D1
100
AcDbEntity
  8
0
100
AcDbMText
 62
2
  6
CONTINUOUS
  7
STANDARD
 71
3
 72
1
 10
10.0474967037
 20
0.739375
 30
0.0
 11
1.0
 21
0.0
 31
0.0
 44
1.65
  1
.
 40
0.0598425197
 41
0.0478740157
  0
MTEXT
  5
2D2
100
AcDbEntity
  8
0
100
AcDbMText
 62
2
  6
CONTINUOUS
  7
STANDARD
 71
1
 72
1
 10
8.9224967037
 20
0.7270964567
 30
0.0
 11
1.0
 21
0.0
 31
0.0
 44
1.65
  1
FINISH
 40
0.0598425197
 41
0.2872440945
  0
MTEXT
  5
2D3
100
AcDbEntity
  8
0
100
AcDbMText
 62
2
  6
CONTINUOUS
  7
STANDARD
 71
3
 72
1
 10
10.0474967037
 20
0.9161712598
 30
0.0
 11
1.0
 21
0.0
 31
0.0
 44
1.65
  1
.
 40
0.0598425197
 41
0.0478740157
  0
MTEXT
  5
2D4
100
AcDbEntity
  8
0
100
AcDbMText
 62
2
  6
CONTINUOUS
  7
STANDARD
 71
1
 72
1
 10
8.9224967037
 20
0.9161712598
 30
0.0
 11
1.0
 21
0.0
 31
0.0
 44
1.65
  1
FRACTIONS \Fgdt;{\Fgdt;`}\Ftxt; 
 40
0.0598425197
 41
0.5964304462
  0
MTEXT
  5
2D5
100
AcDbEntity
  8
0
100
AcDbMText
 62
2
  6
CONTINUOUS
  7
STANDARD
 71
1
 72
1
 10
8.7224967037
 20
1.4012844488
 30
0.0
 11
1.0
 21
0.0
 31
0.0
 44
0.9
  1
TOLERANCE ON:\P1 PL DECIMALS \Fgdt;{\Fgdt;`}\Ftxt; 0.1\P2 PL DECIMALS \Fgdt;{\Fgdt;`}\Ftxt; 0.01\P3 PL DECIMALS \Fgdt;{\Fgdt;`}\Ftxt; 0.005\P       ANGLES \Fgdt;{\Fgdt;`}\Ftxt; 1.0
 40
0.059843
 41
1.0273048333
  0
MTEXT
  5
2D6
100
AcDbEntity
  8
0
100
AcDbMText
 62
2
  6
CONTINUOUS
  7
TEXTSTYLE_6
 71
2
 72
1
 10
9.3849967037
 20
1.7402362205
 30
0.0
 11
1.0
 21
0.0
 31
0.0
 44
0.9
  1
UNLESS OTHERWISE\PSPECIFIED IN DRAWING
 40
0.0984251969
 41
1.3418635171
  0
MTEXT
  5
2D7
100
AcDbEntity
  8
0
100
AcDbMText
 62
2
  6
CONTINUOUS
  7
TEXTSTYLE_10
 71
2
 72
1
 10
9.3849967037
 20
1.8599215
 30
0.0
 11
1.0
 21
0.0
 31
0.0
 44
0.9
  1
DIMENSIONS ARE IN INCHES
 40
0.059843
 41
1.0053624
  0
MTEXT
  5
2D8
100
AcDbEntity
  8
0
100
AcDbMText
 62
2
  6
CONTINUOUS
  7
TEXTSTYLE_10
 71
1
 72
1
 10
8.7224967037
 20
2.0349215
 30
0.0
 11
1.0
 21
0.0
 31
0.0
 44
0.9
  1
APPLIED PRACTICES 
 40
0.059843
 41
0.7540218
  0
MTEXT
  5
2D9
100
AcDbEntity
  8
0
100
AcDbMText
 62
2
  6
CONTINUOUS
  7
TEXTSTYLE_10
 71
1
 72
1
 10
8.7224967037
 20
2.2099215
 30
0.0
 11
1.0
 21
0.0
 31
0.0
 44
0.9
  1
FOR ADDITIONAL INFO REFER TO: 
 40
0.059843
 41
1.256703
  0
LINE
  5
2DA
100
AcDbEntity
  8
0
100
AcDbLine
 62
7
  6
CONTINUOUS
 10
0.01
 20
0.01
 11
0.01
 21
10.99
  0
LWPOLYLINE
  5
2DB
100
AcDbEntity
  8
0
100
AcDbPolyline
 62
2
  6
CONTINUOUS
 90
2
 70
0
 43
0.0120000003
 10
0.37
 20
5.475
 10
0.37
 20
5.525
  0
LWPOLYLINE
  5
2DC
100
AcDbEntity
  8
0
100
AcDbPolyline
 62
2
  6
CONTINUOUS
 90
2
 70
0
 43
0.0120000003
 10
0.47
 20
5.425
 10
0.47
 20
5.475
  0
LWPOLYLINE
  5
2DD
100
AcDbEntity
  8
0
100
AcDbPolyline
 62
2
  6
CONTINUOUS
 90
2
 70
0
 43
0.0120000003
 10
0.47
 20
5.525
 10
0.47
 20
5.575
  0
LINE
  5
2DE
100
AcDbEntity
  8
0
100
AcDbLine
 62
7
  6
CONTINUOUS
 10
0.62
 20
0.38
 11
0.62
 21
10.62
  0
LINE
  5
2DF
100
AcDbEntity
  8
0
100
AcDbLine
 62
7
  6
CONTINUOUS
 10
1.1030054264
 20
0.9414527099
 11
1.1030054264
 21
0.7479615032
  0
LINE
  5
2E0
100
AcDbEntity
  8
0
100
AcDbLine
 62
7
  6
CONTINUOUS
 10
1.1030054264
 20
0.7250480709
 11
1.1030054264
 21
0.6359402784
  0
LINE
  5
2E1
100
AcDbEntity
  8
0
100
AcDbLine
 62
7
  6
CONTINUOUS
 10
1.1030054264
 20
0.6079349721
 11
1.1030054264
 21
0.4297193871
  0
LINE
  5
2E2
100
AcDbEntity
  8
0
100
AcDbLine
 62
7
  6
CONTINUOUS
 10
1.8333640274
 20
0.7900974626
 11
1.8333640274
 21
0.5500894896
  0
LINE
  5
2E3
100
AcDbEntity
  8
0
100
AcDbLine
 62
7
  6
CONTINUOUS
 10
2.4022606176
 20
0.8947379799
 11
2.4022606176
 21
0.454723371
  0
LINE
  5
2E4
100
AcDbEntity
  8
0
100
AcDbLine
 62
7
  6
CONTINUOUS
 10
1.8333640274
 20
0.5500894896
 11
2.4022606176
 21
0.454723371
  0
LINE
  5
2E5
100
AcDbEntity
  8
0
100
AcDbLine
 62
7
  6
CONTINUOUS
 10
2.6575357151
 20
1.1832619336
 11
2.6575357151
 21
0.38
  0
LINE
  5
2E6
100
AcDbEntity
  8
0
100
AcDbLine
 62
7
  6
CONTINUOUS
 10
0.01
 20
0.01
 11
16.98
 21
0.01
  0
LWPOLYLINE
  5
2E7
100
AcDbEntity
  8
0
100
AcDbPolyline
 62
2
  6
CONTINUOUS
 90
2
 70
0
 43
0.0120000003
 10
8.525
 20
0.129998
 10
8.474999
 20
0.129998
  0
LWPOLYLINE
  5
2E8
100
AcDbEntity
  8
0
100
AcDbPolyline
 62
2
  6
CONTINUOUS
 90
2
 70
0
 43
0.0120000003
 10
8.574999
 20
0.229998
 10
8.525
 20
0.229998
  0
LWPOLYLINE
  5
2E9
100
AcDbEntity
  8
0
100
AcDbPolyline
 62
2
  6
CONTINUOUS
 90
2
 70
0
 43
0.0120000003
 10
8.474999
 20
0.229998
 10
8.42501
 20
0.229998
  0
LINE
  5
2EA
100
AcDbEntity
  8
0
100
AcDbLine
 62
7
  6
CONTINUOUS
 10
16.38
 20
0.38
 11
0.62
 21
0.38
  0
LINE
  5
2EB
100
AcDbEntity
  8
0
100
AcDbLine
 62
7
  6
CONTINUOUS
 10
2.4542492538
 20
0.6747306755
 11
2.1792880655
 21
0.6747306755
  0
LINE
  5
2EC
100
AcDbEntity
  8
0
100
AcDbLine
 62
7
  6
CONTINUOUS
 10
2.15892057
 20
0.6747306755
 11
2.1130937053
 21
0.6747306755
  0
LINE
  5
2ED
100
AcDbEntity
  8
0
100
AcDbLine
 62
7
  6
CONTINUOUS
 10
2.0825424622
 20
0.6747306755
 11
1.7897597153
 21
0.6747306755
  0
LINE
  5
2EE
100
AcDbEntity
  8
0
100
AcDbLine
 62
7
  6
CONTINUOUS
 10
1.3620423112
 20
0.6747306755
 11
1.1736429785
 21
0.6747306755
  0
LINE
  5
2EF
100
AcDbEntity
  8
0
100
AcDbLine
 62
7
  6
CONTINUOUS
 10
1.1379998615
 20
0.6747306755
 11
1.0768973752
 21
0.6747306755
  0
LINE
  5
2F0
100
AcDbEntity
  8
0
100
AcDbLine
 62
7
  6
CONTINUOUS
 10
1.046346132
 20
0.6747306755
 11
0.83248743
 21
0.6747306755
  0
LINE
  5
2F1
100
AcDbEntity
  8
0
100
AcDbLine
 62
2
  6
CONTINUOUS
 10
12.3126523251
 20
2.1073824596
 11
12.3149003251
 21
2.1080184596
  0
LINE
  5
2F2
100
AcDbEntity
  8
0
100
AcDbLine
 62
2
  6
CONTINUOUS
 10
12.3228563251
 20
1.9040854596
 11
12.3250823251
 21
1.9047024596
  0
LINE
  5
2F3
100
AcDbEntity
  8
0
100
AcDbLine
 62
2
  6
CONTINUOUS
 10
12.2202163251
 20
2.0296314596
 11
12.2225883251
 21
2.0302614596
  0
LINE
  5
2F4
100
AcDbEntity
  8
0
100
AcDbLine
 62
2
  6
CONTINUOUS
 10
12.2257473251
 20
2.1554714596
 11
12.2231073251
 21
2.1547724596
  0
LINE
  5
2F5
100
AcDbEntity
  8
0
100
AcDbLine
 62
2
  6
CONTINUOUS
 10
12.2948463251
 20
1.8535104596
 11
12.2974883251
 21
1.8542084596
  0
LINE
  5
2F6
100
AcDbEntity
  8
0
100
AcDbLine
 62
2
  6
CONTINUOUS
 10
12.2858193251
 20
2.1347664596
 11
12.2835473251
 21
2.1341714596
  0
LINE
  5
2F7
100
AcDbEntity
  8
0
100
AcDbLine
 62
2
  6
CONTINUOUS
 10
12.2347763251
 20
1.8742154596
 11
12.2370463251
 21
1.8748094596
  0
LINE
  5
2F8
100
AcDbEntity
  8
0
100
AcDbLine
 62
2
  6
CONTINUOUS
 10
12.2726913251
 20
1.8507314596
 11
12.2702873251
 21
1.8501044596
  0
LINE
  5
2F9
100
AcDbEntity
  8
0
100
AcDbLine
 62
2
  6
CONTINUOUS
 10
12.2479033251
 20
2.1582504596
 11
12.2503063251
 21
2.1588774596
  0
LINE
  5
2FA
100
AcDbEntity
  8
0
100
AcDbLine
 62
2
  6
CONTINUOUS
 10
12.2164183251
 20
2.0066334596
 11
12.2186153251
 21
2.0071784596
  0
LINE
  5
2FB
100
AcDbEntity
  8
0
100
AcDbLine
 62
2
  6
CONTINUOUS
 10
12.2275043251
 20
2.1092874596
 11
12.2252033251
 21
2.1087184596
  0
LINE
  5
2FC
100
AcDbEntity
  8
0
100
AcDbLine
 62
2
  6
CONTINUOUS
 10
12.3187193251
 20
1.9994684596
 11
12.3164643251
 21
1.9989134596
  0
LINE
  5
2FD
100
AcDbEntity
  8
0
100
AcDbLine
 62
2
  6
CONTINUOUS
 10
12.2016573251
 20
1.9066004596
 11
12.2038933251
 21
1.9071454596
  0
LINE
  5
2FE
100
AcDbEntity
  8
0
100
AcDbLine
 62
2
  6
CONTINUOUS
 10
12.2921803251
 20
1.8528744596
 11
12.2948463251
 21
1.8535104596
  0
LINE
  5
2FF
100
AcDbEntity
  8
0
100
AcDbLine
 62
2
  6
CONTINUOUS
 10
12.2284143251
 20
2.1561064596
 11
12.2257473251
 21
2.1554714596
  0
LINE
  5
300
100
AcDbEntity
  8
0
100
AcDbLine
 62
2
  6
CONTINUOUS
 10
12.2702873251
 20
1.8501044596
 11
12.2679153251
 21
1.8495494596
  0
LINE
  5
301
100
AcDbEntity
  8
0
100
AcDbLine
 62
2
  6
CONTINUOUS
 10
12.2503063251
 20
2.1588774596
 11
12.2526813251
 21
2.1594314596
  0
LINE
  5
302
100
AcDbEntity
  8
0
100
AcDbLine
 62
2
  6
CONTINUOUS
 10
12.3206473251
 20
1.9035814596
 11
12.3228563251
 21
1.9040854596
  0
LINE
  5
303
100
AcDbEntity
  8
0
100
AcDbLine
 62
2
  6
CONTINUOUS
 10
12.3176763251
 20
1.9312304596
 11
12.3155303251
 21
1.9307414596
  0
LINE
  5
304
100
AcDbEntity
  8
0
100
AcDbLine
 62
2
  6
CONTINUOUS
 10
12.2620153251
 20
1.8861734596
 11
12.2641743251
 21
1.8866444596
  0
LINE
  5
305
100
AcDbEntity
  8
0
100
AcDbLine
 62
2
  6
CONTINUOUS
 10
12.2585803251
 20
2.1228064596
 11
12.2564213251
 21
2.1223374596
  0
LINE
  5
306
100
AcDbEntity
  8
0
100
AcDbLine
 62
2
  6
CONTINUOUS
 10
12.2898173251
 20
1.8523624596
 11
12.2921803251
 21
1.8528744596
  0
LINE
  5
307
100
AcDbEntity
  8
0
100
AcDbLine
 62
2
  6
CONTINUOUS
 10
12.3117113251
 20
2.0332064596
 11
12.3134153251
 21
2.0335734596
  0
LINE
  5
308
100
AcDbEntity
  8
0
100
AcDbLine
 62
2
  6
CONTINUOUS
 10
12.1994183251
 20
1.9061264596
 11
12.2016573251
 21
1.9066004596
  0
LINE
  5
309
100
AcDbEntity
  8
0
100
AcDbLine
 62
2
  6
CONTINUOUS
 10
12.2143243251
 20
2.0061944596
 11
12.2164183251
 21
2.0066334596
  0
LINE
  5
30A
100
AcDbEntity
  8
0
100
AcDbLine
 62
2
  6
CONTINUOUS
 10
12.2873753251
 20
1.8518714596
 11
12.2898173251
 21
1.8523624596
  0
LINE
  5
30B
100
AcDbEntity
  8
0
100
AcDbLine
 62
2
  6
CONTINUOUS
 10
12.2323663251
 20
1.8737314596
 11
12.2347763251
 21
1.8742154596
  0
LINE
  5
30C
100
AcDbEntity
  8
0
100
AcDbLine
 62
2
  6
CONTINUOUS
 10
12.2679153251
 20
1.8495494596
 11
12.2655973251
 21
1.8490874596
  0
LINE
  5
30D
100
AcDbEntity
  8
0
100
AcDbLine
 62
2
  6
CONTINUOUS
 10
12.3209893251
 20
1.9999104596
 11
12.3187193251
 21
1.9994684596
  0
LINE
  5
30E
100
AcDbEntity
  8
0
100
AcDbLine
 62
2
  6
CONTINUOUS
 10
12.3290993251
 20
2.0074924596
 11
12.3266113251
 21
2.0070214596
  0
LINE
  5
30F
100
AcDbEntity
  8
0
100
AcDbLine
 62
2
  6
CONTINUOUS
 10
12.1971673251
 20
1.9057004596
 11
12.1994183251
 21
1.9061264596
  0
LINE
  5
310
100
AcDbEntity
  8
0
100
AcDbLine
 62
2
  6
CONTINUOUS
 10
12.3134153251
 20
2.0335734596
 11
12.3157893251
 21
2.0340164596
  0
LINE
  5
311
100
AcDbEntity
  8
0
100
AcDbLine
 62
2
  6
CONTINUOUS
 10
12.2848843251
 20
1.8514074596
 11
12.2873753251
 21
1.8518714596
  0
LINE
  5
312
100
AcDbEntity
  8
0
100
AcDbLine
 62
2
  6
CONTINUOUS
 10
12.1949243251
 20
1.9052964596
 11
12.1971673251
 21
1.9057004596
  0
LINE
  5
313
100
AcDbEntity
  8
0
100
AcDbLine
 62
2
  6
CONTINUOUS
 10
12.2823593251
 20
1.8509664596
 11
12.2848843251
 21
1.8514074596
  0
LINE
  5
314
100
AcDbEntity
  8
0
100
AcDbLine
 62
2
  6
CONTINUOUS
 10
12.1927273251
 20
1.9049184596
 11
12.1949243251
 21
1.9052964596
  0
LINE
  5
315
100
AcDbEntity
  8
0
100
AcDbLine
 62
2
  6
CONTINUOUS
 10
12.3184633251
 20
1.9032104596
 11
12.3206473251
 21
1.9035814596
  0
LINE
  5
316
100
AcDbEntity
  8
0
100
AcDbLine
 62
2
  6
CONTINUOUS
 10
12.2798283251
 20
1.8505514596
 11
12.2823593251
 21
1.8509664596
  0
LINE
  5
317
100
AcDbEntity
  8
0
100
AcDbLine
 62
2
  6
CONTINUOUS
 10
12.2773083251
 20
1.8501594596
 11
12.2798283251
 21
1.8505514596
  0
LINE
  5
318
100
AcDbEntity
  8
0
100
AcDbLine
 62
2
  6
CONTINUOUS
 10
12.1897883251
 20
1.9330134596
 11
12.1921383251
 21
1.9333784596
  0
LINE
  5
319
100
AcDbEntity
  8
0
100
AcDbLine
 62
2
  6
CONTINUOUS
 10
12.2655973251
 20
1.8490874596
 11
12.2633073251
 21
1.8487454596
  0
LINE
  5
31A
100
AcDbEntity
  8
0
100
AcDbLine
 62
2
  6
CONTINUOUS
 10
12.2641743251
 20
1.8866444596
 11
12.2663913251
 21
1.8869734596
  0
LINE
  5
31B
100
AcDbEntity
  8
0
100
AcDbLine
 62
2
  6
CONTINUOUS
 10
12.2748273251
 20
1.8497924596
 11
12.2773083251
 21
1.8501594596
  0
LINE
  5
31C
100
AcDbEntity
  8
0
100
AcDbLine
 62
2
  6
CONTINUOUS
 10
12.1904973251
 20
1.9045974596
 11
12.1927273251
 21
1.9049184596
  0
LINE
  5
31D
100
AcDbEntity
  8
0
100
AcDbLine
 62
2
  6
CONTINUOUS
 10
12.2724013251
 20
1.8494494596
 11
12.2748273251
 21
1.8497924596
  0
LINE
  5
31E
100
AcDbEntity
  8
0
100
AcDbLine
 62
2
  6
CONTINUOUS
 10
12.2700553251
 20
1.8491324596
 11
12.2724013251
 21
1.8494494596
  0
LINE
  5
31F
100
AcDbEntity
  8
0
100
AcDbLine
 62
2
  6
CONTINUOUS
 10
12.2299603251
 20
1.8734104596
 11
12.2323663251
 21
1.8737314596
  0
LINE
  5
320
100
AcDbEntity
  8
0
100
AcDbLine
 62
2
  6
CONTINUOUS
 10
12.2678103251
 20
1.8488394596
 11
12.2700553251
 21
1.8491324596
  0
LINE
  5
321
100
AcDbEntity
  8
0
100
AcDbLine
 62
2
  6
CONTINUOUS
 10
12.2656933251
 20
1.8485724596
 11
12.2678103251
 21
1.8488394596
  0
LINE
  5
322
100
AcDbEntity
  8
0
100
AcDbLine
 62
2
  6
CONTINUOUS
 10
12.2637173251
 20
1.8483304596
 11
12.2656933251
 21
1.8485724596
  0
LINE
  5
323
100
AcDbEntity
  8
0
100
AcDbLine
 62
2
  6
CONTINUOUS
 10
12.2619123251
 20
1.8481114596
 11
12.2637173251
 21
1.8483304596
  0
LINE
  5
324
100
AcDbEntity
  8
0
100
AcDbLine
 62
7
  6
CONTINUOUS
 10
2.6575357151
 20
0.9832619336
 11
0.62
 21
0.9832619336
  0
LINE
  5
325
100
AcDbEntity
  8
0
100
AcDbLine
 62
7
  6
CONTINUOUS
 10
2.6575357151
 20
1.1832619336
 11
0.62
 21
1.1832619336
  0
LWPOLYLINE
  5
326
100
AcDbEntity
  8
0
100
AcDbPolyline
 62
2
  6
CONTINUOUS
 90
2
 70
0
 43
0.0120000003
 10
0.62
 20
5.5
 10
0.47
 20
5.425
  0
LINE
  5
327
100
AcDbEntity
  8
0
100
AcDbLine
 62
2
  6
CONTINUOUS
 10
12.2307793251
 20
2.1566194596
 11
12.2284143251
 21
2.1561064596
  0
LINE
  5
328
100
AcDbEntity
  8
0
100
AcDbLine
 62
2
  6
CONTINUOUS
 10
12.2882303251
 20
2.1352504596
 11
12.2858193251
 21
2.1347664596
  0
LINE
  5
329
100
AcDbEntity
  8
0
100
AcDbLine
 62
2
  6
CONTINUOUS
 10
12.2332183251
 20
2.1571084596
 11
12.2307793251
 21
2.1566194596
  0
LINE
  5
32A
100
AcDbEntity
  8
0
100
AcDbLine
 62
2
  6
CONTINUOUS
 10
12.2526813251
 20
2.1594314596
 11
12.2549983251
 21
2.1598934596
  0
LINE
  5
32B
100
AcDbEntity
  8
0
100
AcDbLine
 62
2
  6
CONTINUOUS
 10
12.2298733251
 20
2.1097414596
 11
12.2275043251
 21
2.1092874596
  0
LINE
  5
32C
100
AcDbEntity
  8
0
100
AcDbLine
 62
2
  6
CONTINUOUS
 10
12.2357113251
 20
2.1575734596
 11
12.2332183251
 21
2.1571084596
  0
LINE
  5
32D
100
AcDbEntity
  8
0
100
AcDbLine
 62
2
  6
CONTINUOUS
 10
12.3149003251
 20
2.1080184596
 11
12.3171823251
 21
2.1084324596
  0
LINE
  5
32E
100
AcDbEntity
  8
0
100
AcDbLine
 62
2
  6
CONTINUOUS
 10
12.2382343251
 20
2.1580134596
 11
12.2357113251
 21
2.1575734596
  0
LINE
  5
32F
100
AcDbEntity
  8
0
100
AcDbLine
 62
2
  6
CONTINUOUS
 10
12.1294263251
 20
1.9773654596
 11
12.1270743251
 21
1.9769764596
  0
LINE
  5
330
100
AcDbEntity
  8
0
100
AcDbLine
 62
2
  6
CONTINUOUS
 10
12.3911693251
 20
2.0316164596
 11
12.3935213251
 21
2.0320054596
  0
LINE
  5
331
100
AcDbEntity
  8
0
100
AcDbLine
 62
2
  6
CONTINUOUS
 10
12.2407663251
 20
2.1584304596
 11
12.2382343251
 21
2.1580134596
  0
LINE
  5
332
100
AcDbEntity
  8
0
100
AcDbLine
 62
2
  6
CONTINUOUS
 10
12.2120083251
 20
2.0058214596
 11
12.2143243251
 21
2.0061944596
  0
LINE
  5
333
100
AcDbEntity
  8
0
100
AcDbLine
 62
2
  6
CONTINUOUS
 10
12.2432853251
 20
2.1588224596
 11
12.2407663251
 21
2.1584304596
  0
LINE
  5
334
100
AcDbEntity
  8
0
100
AcDbLine
 62
2
  6
CONTINUOUS
 10
12.1775713251
 20
2.0837864596
 11
12.1752583251
 21
2.0834374596
  0
LINE
  5
335
100
AcDbEntity
  8
0
100
AcDbLine
 62
2
  6
CONTINUOUS
 10
12.2549983251
 20
2.1598934596
 11
12.2572893251
 21
2.1602364596
  0
LINE
  5
336
100
AcDbEntity
  8
0
100
AcDbLine
 62
2
  6
CONTINUOUS
 10
12.2564213251
 20
2.1223374596
 11
12.2542053251
 21
2.1220064596
  0
LINE
  5
337
100
AcDbEntity
  8
0
100
AcDbLine
 62
2
  6
CONTINUOUS
 10
12.2457683251
 20
2.1591894596
 11
12.2432853251
 21
2.1588224596
  0
LINE
  5
338
100
AcDbEntity
  8
0
100
AcDbLine
 62
2
  6
CONTINUOUS
 10
12.2524823251
 20
2.0658834596
 11
12.2547273251
 21
2.0662074596
  0
LINE
  5
339
100
AcDbEntity
  8
0
100
AcDbLine
 62
2
  6
CONTINUOUS
 10
12.2501903251
 20
2.0655554596
 11
12.2524823251
 21
2.0658834596
  0
LINE
  5
33A
100
AcDbEntity
  8
0
100
AcDbLine
 62
2
  6
CONTINUOUS
 10
12.3232473251
 20
2.0002294596
 11
12.3209893251
 21
1.9999104596
  0
LINE
  5
33B
100
AcDbEntity
  8
0
100
AcDbLine
 62
2
  6
CONTINUOUS
 10
12.3157893251
 20
2.0340164596
 11
12.3185783251
 21
2.0344104596
  0
LINE
  5
33C
100
AcDbEntity
  8
0
100
AcDbLine
 62
2
  6
CONTINUOUS
 10
12.2481953251
 20
2.1595304596
 11
12.2457683251
 21
2.1591894596
  0
LINE
  5
33D
100
AcDbEntity
  8
0
100
AcDbLine
 62
2
  6
CONTINUOUS
 10
12.2505413251
 20
2.1598494596
 11
12.2481953251
 21
2.1595304596
  0
LINE
  5
33E
100
AcDbEntity
  8
0
100
AcDbLine
 62
2
  6
CONTINUOUS
 10
12.2906353251
 20
2.1355714596
 11
12.2882303251
 21
2.1352504596
  0
LINE
  5
33F
100
AcDbEntity
  8
0
100
AcDbLine
 62
2
  6
CONTINUOUS
 10
12.2322053251
 20
2.1100504596
 11
12.2298733251
 21
2.1097414596
  0
LINE
  5
340
100
AcDbEntity
  8
0
100
AcDbLine
 62
2
  6
CONTINUOUS
 10
12.2527843251
 20
2.1601414596
 11
12.2505413251
 21
2.1598494596
  0
LINE
  5
341
100
AcDbEntity
  8
0
100
AcDbLine
 62
2
  6
CONTINUOUS
 10
12.3161733251
 20
1.9376444596
 11
12.3184213251
 21
1.9379304596
  0
LINE
  5
342
100
AcDbEntity
  8
0
100
AcDbLine
 62
2
  6
CONTINUOUS
 10
12.2549053251
 20
2.1604094596
 11
12.2527843251
 21
2.1601414596
  0
LINE
  5
343
100
AcDbEntity
  8
0
100
AcDbLine
 62
2
  6
CONTINUOUS
 10
12.2568773251
 20
2.1606514596
 11
12.2549053251
 21
2.1604094596
  0
LINE
  5
344
100
AcDbEntity
  8
0
100
AcDbLine
 62
2
  6
CONTINUOUS
 10
12.2586833251
 20
2.1608694596
 11
12.2568773251
 21
2.1606514596
  0
LINE
  5
345
100
AcDbEntity
  8
0
100
AcDbLine
 62
2
  6
CONTINUOUS
 10
12.2602973251
 20
1.8479194596
 11
12.2619123251
 21
1.8481114596
  0
LINE
  5
346
100
AcDbEntity
  8
0
100
AcDbLine
 62
2
  6
CONTINUOUS
 10
12.2602973251
 20
2.1610614596
 11
12.2586833251
 21
2.1608694596
  0
LINE
  5
347
100
AcDbEntity
  8
0
100
AcDbLine
 62
2
  6
CONTINUOUS
 10
12.2547273251
 20
2.0662074596
 11
12.2571213251
 21
2.0664644596
  0
LINE
  5
348
100
AcDbEntity
  8
0
100
AcDbLine
 62
2
  6
CONTINUOUS
 10
12.3163273251
 20
1.9029904596
 11
12.3184633251
 21
1.9032104596
  0
LINE
  5
349
100
AcDbEntity
  8
0
100
AcDbLine
 62
2
  6
CONTINUOUS
 10
12.3171823251
 20
2.1084324596
 11
12.3195103251
 21
2.1086704596
  0
LINE
  5
34A
100
AcDbEntity
  8
0
100
AcDbLine
 62
2
  6
CONTINUOUS
 10
12.1882243251
 20
1.9043784596
 11
12.1904973251
 21
1.9045974596
  0
LINE
  5
34B
100
AcDbEntity
  8
0
100
AcDbLine
 62
2
  6
CONTINUOUS
 10
12.3155303251
 20
1.9307414596
 11
12.3132963251
 21
1.9305264596
  0
LINE
  5
34C
100
AcDbEntity
  8
0
100
AcDbLine
 62
2
  6
CONTINUOUS
 10
12.2633073251
 20
1.8487454596
 11
12.2609433251
 21
1.8485254596
  0
LINE
  5
34D
100
AcDbEntity
  8
0
100
AcDbLine
 62
2
  6
CONTINUOUS
 10
12.2572893251
 20
2.1602364596
 11
12.2596543251
 21
2.1604554596
  0
LINE
  5
34E
100
AcDbEntity
  8
0
100
AcDbLine
 62
2
  6
CONTINUOUS
 10
12.3185783251
 20
2.0344104596
 11
12.3208463251
 21
2.0346134596
  0
LINE
  5
34F
100
AcDbEntity
  8
0
100
AcDbLine
 62
2
  6
CONTINUOUS
 10
12.2175933251
 20
2.0294154596
 11
12.2202163251
 21
2.0296314596
  0
LINE
  5
350
100
AcDbEntity
  8
0
100
AcDbLine
 62
2
  6
CONTINUOUS
 10
12.3256943251
 20
2.0004274596
 11
12.3232473251
 21
2.0002294596
  0
LINE
  5
351
100
AcDbEntity
  8
0
100
AcDbLine
 62
2
  6
CONTINUOUS
 10
12.2663913251
 20
1.8869734596
 11
12.2687443251
 21
1.8871494596
  0
LINE
  5
352
100
AcDbEntity
  8
0
100
AcDbLine
 62
2
  6
CONTINUOUS
 10
12.2542053251
 20
2.1220064596
 11
12.2518493251
 21
2.1218324596
  0
LINE
  5
353
100
AcDbEntity
  8
0
100
AcDbLine
 62
2
  6
CONTINUOUS
 10
12.3266113251
 20
2.0070214596
 11
12.3242503251
 21
2.0068574596
  0
LINE
  5
354
100
AcDbEntity
  8
0
100
AcDbLine
 62
2
  6
CONTINUOUS
 10
12.2278453251
 20
1.8732664596
 11
12.2299603251
 21
1.8734104596
  0
LINE
  5
355
100
AcDbEntity
  8
0
100
AcDbLine
 62
2
  6
CONTINUOUS
 10
12.2927503251
 20
2.1357144596
 11
12.2906353251
 21
2.1355714596
  0
LINE
  5
356
100
AcDbEntity
  8
0
100
AcDbLine
 62
2
  6
CONTINUOUS
 10
12.2344353251
 20
2.1101954596
 11
12.2322053251
 21
2.1100504596
  0
LINE
  5
357
100
AcDbEntity
  8
0
100
AcDbLine
 62
2
  6
CONTINUOUS
 10
12.2096513251
 20
2.0057014596
 11
12.2120083251
 21
2.0058214596
  0
LINE
  5
358
100
AcDbEntity
  8
0
100
AcDbLine
 62
2
  6
CONTINUOUS
 10
12.2596543251
 20
2.1604554596
 11
12.2616223251
 21
2.1605454596
  0
LINE
  5
359
100
AcDbEntity
  8
0
100
AcDbLine
 62
2
  6
CONTINUOUS
 10
12.2609433251
 20
1.8485254596
 11
12.2589733251
 21
1.8484364596
  0
LINE
  5
35A
100
AcDbEntity
  8
0
100
AcDbLine
 62
2
  6
CONTINUOUS
 10
12.3141793251
 20
1.9029044596
 11
12.3163273251
 21
1.9029904596
  0
LINE
  5
35B
100
AcDbEntity
  8
0
100
AcDbLine
 62
2
  6
CONTINUOUS
 10
12.3195103251
 20
2.1086704596
 11
12.3218353251
 21
2.1087574596
  0
LINE
  5
35C
100
AcDbEntity
  8
0
100
AcDbLine
 62
2
  6
CONTINUOUS
 10
12.3208463251
 20
2.0346134596
 11
12.3231903251
 21
2.0346964596
  0
LINE
  5
35D
100
AcDbEntity
  8
0
100
AcDbLine
 62
2
  6
CONTINUOUS
 10
12.1858893251
 20
1.9043054596
 11
12.1882243251
 21
1.9043784596
  0
LINE
  5
35E
100
AcDbEntity
  8
0
100
AcDbLine
 62
2
  6
CONTINUOUS
 10
12.1798913251
 20
2.0838414596
 11
12.1775713251
 21
2.0837864596
  0
LINE
  5
35F
100
AcDbEntity
  8
0
100
AcDbLine
 62
2
  6
CONTINUOUS
 10
12.2256673251
 20
1.8732354596
 11
12.2278453251
 21
1.8732664596
  0
LINE
  5
360
100
AcDbEntity
  8
0
100
AcDbLine
 62
2
  6
CONTINUOUS
 10
12.3280633251
 20
2.0004584596
 11
12.3256943251
 21
2.0004274596
  0
LINE
  5
361
100
AcDbEntity
  8
0
100
AcDbLine
 62
2
  6
CONTINUOUS
 10
12.2589733251
 20
1.8484364596
 11
12.2568023251
 21
1.8484144596
  0
LINE
  5
362
100
AcDbEntity
  8
0
100
AcDbLine
 62
2
  6
CONTINUOUS
 10
12.2843223251
 20
1.8513074596
 11
12.2746573251
 21
1.8513074596
  0
LINE
  5
363
100
AcDbEntity
  8
0
100
AcDbLine
 62
2
  6
CONTINUOUS
 10
12.3021573251
 20
1.8556274596
 11
12.2822223251
 21
1.8556274596
  0
LINE
  5
364
100
AcDbEntity
  8
0
100
AcDbLine
 62
2
  6
CONTINUOUS
 10
12.3129613251
 20
1.8599474596
 11
12.2852643251
 21
1.8599474596
  0
LINE
  5
365
100
AcDbEntity
  8
0
100
AcDbLine
 62
2
  6
CONTINUOUS
 10
12.3213613251
 20
1.8642674596
 11
12.2870173251
 21
1.8642674596
  0
LINE
  5
366
100
AcDbEntity
  8
0
100
AcDbLine
 62
2
  6
CONTINUOUS
 10
12.3287113251
 20
1.8685874596
 11
12.2877743251
 21
1.8685874596
  0
LINE
  5
367
100
AcDbEntity
  8
0
100
AcDbLine
 62
2
  6
CONTINUOUS
 10
12.3353553251
 20
1.8729074596
 11
12.2875913251
 21
1.8729074596
  0
LINE
  5
368
100
AcDbEntity
  8
0
100
AcDbLine
 62
2
  6
CONTINUOUS
 10
12.3415443251
 20
1.8772274596
 11
12.2859683251
 21
1.8772274596
  0
LINE
  5
369
100
AcDbEntity
  8
0
100
AcDbLine
 62
2
  6
CONTINUOUS
 10
12.2434493251
 20
1.8772274596
 11
12.1998403251
 21
1.8772274596
  0
LINE
  5
36A
100
AcDbEntity
  8
0
100
AcDbLine
 62
2
  6
CONTINUOUS
 10
12.3472263251
 20
1.8815474596
 11
12.2833153251
 21
1.8815474596
  0
LINE
  5
36B
100
AcDbEntity
  8
0
100
AcDbLine
 62
2
  6
CONTINUOUS
 10
12.2511573251
 20
1.8815474596
 11
12.1894223251
 21
1.8815474596
  0
LINE
  5
36C
100
AcDbEntity
  8
0
100
AcDbLine
 62
2
  6
CONTINUOUS
 10
12.3522883251
 20
1.8858694596
 11
12.2774783251
 21
1.8858694596
  0
LINE
  5
36D
100
AcDbEntity
  8
0
100
AcDbLine
 62
2
  6
CONTINUOUS
 10
12.2608883251
 20
1.8858694596
 11
12.1783993251
 21
1.8858694596
  0
LINE
  5
36E
100
AcDbEntity
  8
0
100
AcDbLine
 62
2
  6
CONTINUOUS
 10
12.3566243251
 20
1.8901894596
 11
12.1700893251
 21
1.8901894596
  0
LINE
  5
36F
100
AcDbEntity
  8
0
100
AcDbLine
 62
2
  6
CONTINUOUS
 10
12.3603183251
 20
1.8945094596
 11
12.1638153251
 21
1.8945094596
  0
LINE
  5
370
100
AcDbEntity
  8
0
100
AcDbLine
 62
2
  6
CONTINUOUS
 10
12.3636143251
 20
1.8988294596
 11
12.1578783251
 21
1.8988294596
  0
LINE
  5
371
100
AcDbEntity
  8
0
100
AcDbLine
 62
2
  6
CONTINUOUS
 10
12.3667333251
 20
1.9031494596
 11
12.1519993251
 21
1.9031494596
  0
LINE
  5
372
100
AcDbEntity
  8
0
100
AcDbLine
 62
2
  6
CONTINUOUS
 10
12.3698853251
 20
1.9074704596
 11
12.3329233251
 21
1.9074704596
  0
LINE
  5
373
100
AcDbEntity
  8
0
100
AcDbLine
 62
2
  6
CONTINUOUS
 10
12.2866833251
 20
1.9074704596
 11
12.2050683251
 21
1.9074704596
  0
LINE
  5
374
100
AcDbEntity
  8
0
100
AcDbLine
 62
2
  6
CONTINUOUS
 10
12.1719503251
 20
1.9074704596
 11
12.1467623251
 21
1.9074704596
  0
LINE
  5
375
100
AcDbEntity
  8
0
100
AcDbLine
 62
2
  6
CONTINUOUS
 10
12.3729663251
 20
1.9117914596
 11
12.3418573251
 21
1.9117914596
  0
LINE
  5
376
100
AcDbEntity
  8
0
100
AcDbLine
 62
2
  6
CONTINUOUS
 10
12.2791643251
 20
1.9117914596
 11
12.2150353251
 21
1.9117914596
  0
LINE
  5
377
100
AcDbEntity
  8
0
100
AcDbLine
 62
2
  6
CONTINUOUS
 10
12.1642453251
 20
1.9117914596
 11
12.1423333251
 21
1.9117914596
  0
LINE
  5
378
100
AcDbEntity
  8
0
100
AcDbLine
 62
2
  6
CONTINUOUS
 10
12.3757033251
 20
1.9161114596
 11
12.3480353251
 21
1.9161114596
  0
LINE
  5
379
100
AcDbEntity
  8
0
100
AcDbLine
 62
2
  6
CONTINUOUS
 10
12.2737213251
 20
1.9161114596
 11
12.2205463251
 21
1.9161114596
  0
LINE
  5
37A
100
AcDbEntity
  8
0
100
AcDbLine
 62
2
  6
CONTINUOUS
 10
12.1597113251
 20
1.9161114596
 11
12.1385373251
 21
1.9161114596
  0
LINE
  5
37B
100
AcDbEntity
  8
0
100
AcDbLine
 62
2
  6
CONTINUOUS
 10
12.3779523251
 20
1.9204314596
 11
12.3525673251
 21
1.9204314596
  0
LINE
  5
37C
100
AcDbEntity
  8
0
100
AcDbLine
 62
2
  6
CONTINUOUS
 10
12.2693783251
 20
1.9204314596
 11
12.2244313251
 21
1.9204314596
  0
LINE
  5
37D
100
AcDbEntity
  8
0
100
AcDbLine
 62
2
  6
CONTINUOUS
 10
12.1566443251
 20
1.9204314596
 11
12.1351193251
 21
1.9204314596
  0
LINE
  5
37E
100
AcDbEntity
  8
0
100
AcDbLine
 62
2
  6
CONTINUOUS
 10
12.3798213251
 20
1.9247514596
 11
12.3557963251
 21
1.9247514596
  0
LINE
  5
37F
100
AcDbEntity
  8
0
100
AcDbLine
 62
2
  6
CONTINUOUS
 10
12.2657753251
 20
1.9247514596
 11
12.2279823251
 21
1.9247514596
  0
LINE
  5
380
100
AcDbEntity
  8
0
100
AcDbLine
 62
2
  6
CONTINUOUS
 10
12.1548223251
 20
1.9247514596
 11
12.1319533251
 21
1.9247514596
  0
LINE
  5
381
100
AcDbEntity
  8
0
100
AcDbLine
 62
2
  6
CONTINUOUS
 10
12.3815073251
 20
1.9290714596
 11
12.3582113251
 21
1.9290714596
  0
LINE
  5
382
100
AcDbEntity
  8
0
100
AcDbLine
 62
2
  6
CONTINUOUS
 10
12.2628183251
 20
1.9290714596
 11
12.2311663251
 21
1.9290714596
  0
LINE
  5
383
100
AcDbEntity
  8
0
100
AcDbLine
 62
2
  6
CONTINUOUS
 10
12.1536513251
 20
1.9290714596
 11
12.1289613251
 21
1.9290714596
  0
LINE
  5
384
100
AcDbEntity
  8
0
100
AcDbLine
 62
2
  6
CONTINUOUS
 10
12.3831533251
 20
1.9333924596
 11
12.3601833251
 21
1.9333924596
  0
LINE
  5
385
100
AcDbEntity
  8
0
100
AcDbLine
 62
2
  6
CONTINUOUS
 10
12.3232683251
 20
1.9333924596
 11
12.3008573251
 21
1.9333924596
  0
LINE
  5
386
100
AcDbEntity
  8
0
100
AcDbLine
 62
2
  6
CONTINUOUS
 10
12.2604463251
 20
1.9333924596
 11
12.2336823251
 21
1.9333924596
  0
LINE
  5
387
100
AcDbEntity
  8
0
100
AcDbLine
 62
2
  6
CONTINUOUS
 10
12.1921933251
 20
1.9333924596
 11
12.1866693251
 21
1.9333924596
  0
LINE
  5
388
100
AcDbEntity
  8
0
100
AcDbLine
 62
2
  6
CONTINUOUS
 10
12.1529473251
 20
1.9333924596
 11
12.1260983251
 21
1.9333924596
  0
LINE
  5
389
100
AcDbEntity
  8
0
100
AcDbLine
 62
2
  6
CONTINUOUS
 10
12.3849343251
 20
1.9377124596
 11
12.3617913251
 21
1.9377124596
  0
LINE
  5
38A
100
AcDbEntity
  8
0
100
AcDbLine
 62
2
  6
CONTINUOUS
 10
12.3302753251
 20
1.9377124596
 11
12.2950833251
 21
1.9377124596
  0
LINE
  5
38B
100
AcDbEntity
  8
0
100
AcDbLine
 62
2
  6
CONTINUOUS
 10
12.2585153251
 20
1.9377124596
 11
12.2358453251
 21
1.9377124596
  0
LINE
  5
38C
100
AcDbEntity
  8
0
100
AcDbLine
 62
2
  6
CONTINUOUS
 10
12.1987833251
 20
1.9377124596
 11
12.1827673251
 21
1.9377124596
  0
LINE
  5
38D
100
AcDbEntity
  8
0
100
AcDbLine
 62
2
  6
CONTINUOUS
 10
12.1527013251
 20
1.9377124596
 11
12.1233893251
 21
1.9377124596
  0
LINE
  5
38E
100
AcDbEntity
  8
0
100
AcDbLine
 62
2
  6
CONTINUOUS
 10
12.3867903251
 20
1.9420324596
 11
12.3629793251
 21
1.9420324596
  0
LINE
  5
38F
100
AcDbEntity
  8
0
100
AcDbLine
 62
2
  6
CONTINUOUS
 10
12.3338543251
 20
1.9420324596
 11
12.3233883251
 21
1.9420324596
  0
LINE
  5
390
100
AcDbEntity
  8
0
100
AcDbLine
 62
2
  6
CONTINUOUS
 10
12.3019553251
 20
1.9420324596
 11
12.2915983251
 21
1.9420324596
  0
LINE
  5
391
100
AcDbEntity
  8
0
100
AcDbLine
 62
2
  6
CONTINUOUS
 10
12.2568943251
 20
1.9420324596
 11
12.2378223251
 21
1.9420324596
  0
LINE
  5
392
100
AcDbEntity
  8
0
100
AcDbLine
 62
2
  6
CONTINUOUS
 10
12.2028043251
 20
1.9420324596
 11
12.1827543251
 21
1.9420324596
  0
LINE
  5
393
100
AcDbEntity
  8
0
100
AcDbLine
 62
2
  6
CONTINUOUS
 10
12.1529093251
 20
1.9420324596
 11
12.1208563251
 21
1.9420324596
  0
LINE
  5
394
100
AcDbEntity
  8
0
100
AcDbLine
 62
2
  6
CONTINUOUS
 10
12.3883203251
 20
1.9463524596
 11
12.3636923251
 21
1.9463524596
  0
LINE
  5
395
100
AcDbEntity
  8
0
100
AcDbLine
 62
2
  6
CONTINUOUS
 10
12.3358113251
 20
1.9463524596
 11
12.3254143251
 21
1.9463524596
  0
LINE
  5
396
100
AcDbEntity
  8
0
100
AcDbLine
 62
2
  6
CONTINUOUS
 10
12.2555473251
 20
1.9463524596
 11
12.2396573251
 21
1.9463524596
  0
LINE
  5
397
100
AcDbEntity
  8
0
100
AcDbLine
 62
2
  6
CONTINUOUS
 10
12.2059163251
 20
1.9463524596
 11
12.1841883251
 21
1.9463524596
  0
LINE
  5
398
100
AcDbEntity
  8
0
100
AcDbLine
 62
2
  6
CONTINUOUS
 10
12.1536093251
 20
1.9463524596
 11
12.1184953251
 21
1.9463524596
  0
LINE
  5
399
100
AcDbEntity
  8
0
100
AcDbLine
 62
2
  6
CONTINUOUS
 10
12.2885483251
 20
1.9463524596
 11
12.2971123251
 21
1.9463524596
  0
LINE
  5
39A
100
AcDbEntity
  8
0
100
AcDbLine
 62
2
  6
CONTINUOUS
 10
12.3893753251
 20
1.9506734596
 11
12.3640183251
 21
1.9506734596
  0
LINE
  5
39B
100
AcDbEntity
  8
0
100
AcDbLine
 62
2
  6
CONTINUOUS
 10
12.3367723251
 20
1.9506734596
 11
12.3263733251
 21
1.9506734596
  0
LINE
  5
39C
100
AcDbEntity
  8
0
100
AcDbLine
 62
2
  6
CONTINUOUS
 10
12.2940803251
 20
1.9506734596
 11
12.2862413251
 21
1.9506734596
  0
LINE
  5
39D
100
AcDbEntity
  8
0
100
AcDbLine
 62
2
  6
CONTINUOUS
 10
12.2545163251
 20
1.9506734596
 11
12.2412803251
 21
1.9506734596
  0
LINE
  5
39E
100
AcDbEntity
  8
0
100
AcDbLine
 62
2
  6
CONTINUOUS
 10
12.2087953251
 20
1.9506734596
 11
12.1864043251
 21
1.9506734596
  0
LINE
  5
39F
100
AcDbEntity
  8
0
100
AcDbLine
 62
2
  6
CONTINUOUS
 10
12.1548623251
 20
1.9506734596
 11
12.1163053251
 21
1.9506734596
  0
LINE
  5
3A0
100
AcDbEntity
  8
0
100
AcDbLine
 62
2
  6
CONTINUOUS
 10
12.3901383251
 20
1.9549934596
 11
12.3641253251
 21
1.9549934596
  0
LINE
  5
3A1
100
AcDbEntity
  8
0
100
AcDbLine
 62
2
  6
CONTINUOUS
 10
12.2920123251
 20
1.9549934596
 11
12.2849193251
 21
1.9549934596
  0
LINE
  5
3A2
100
AcDbEntity
  8
0
100
AcDbLine
 62
2
  6
CONTINUOUS
 10
12.2538333251
 20
1.9549934596
 11
12.2425873251
 21
1.9549934596
  0
LINE
  5
3A3
100
AcDbEntity
  8
0
100
AcDbLine
 62
2
  6
CONTINUOUS
 10
12.2116213251
 20
1.9549934596
 11
12.1892213251
 21
1.9549934596
  0
LINE
  5
3A4
100
AcDbEntity
  8
0
100
AcDbLine
 62
2
  6
CONTINUOUS
 10
12.1565833251
 20
1.9549934596
 11
12.1143313251
 21
1.9549934596
  0
LINE
  5
3A5
100
AcDbEntity
  8
0
100
AcDbLine
 62
2
  6
CONTINUOUS
 10
12.3258183251
 20
1.9549934596
 11
12.3368463251
 21
1.9549934596
  0
LINE
  5
3A6
100
AcDbEntity
  8
0
100
AcDbLine
 62
2
  6
CONTINUOUS
 10
12.3907273251
 20
1.9593134596
 11
12.3640973251
 21
1.9593134596
  0
LINE
  5
3A7
100
AcDbEntity
  8
0
100
AcDbLine
 62
2
  6
CONTINUOUS
 10
12.3362663251
 20
1.9593134596
 11
12.3229593251
 21
1.9593134596
  0
LINE
  5
3A8
100
AcDbEntity
  8
0
100
AcDbLine
 62
2
  6
CONTINUOUS
 10
12.2908123251
 20
1.9593134596
 11
12.2843143251
 21
1.9593134596
  0
LINE
  5
3A9
100
AcDbEntity
  8
0
100
AcDbLine
 62
2
  6
CONTINUOUS
 10
12.2535143251
 20
1.9593134596
 11
12.2436633251
 21
1.9593134596
  0
LINE
  5
3AA
100
AcDbEntity
  8
0
100
AcDbLine
 62
2
  6
CONTINUOUS
 10
12.2140093251
 20
1.9593134596
 11
12.1929103251
 21
1.9593134596
  0
LINE
  5
3AB
100
AcDbEntity
  8
0
100
AcDbLine
 62
2
  6
CONTINUOUS
 10
12.1586313251
 20
1.9593134596
 11
12.1125993251
 21
1.9593134596
  0
LINE
  5
3AC
100
AcDbEntity
  8
0
100
AcDbLine
 62
2
  6
CONTINUOUS
 10
12.3911923251
 20
1.9636344596
 11
12.3638873251
 21
1.9636344596
  0
LINE
  5
3AD
100
AcDbEntity
  8
0
100
AcDbLine
 62
2
  6
CONTINUOUS
 10
12.3349413251
 20
1.9636344596
 11
12.3198293251
 21
1.9636344596
  0
LINE
  5
3AE
100
AcDbEntity
  8
0
100
AcDbLine
 62
2
  6
CONTINUOUS
 10
12.2905453251
 20
1.9636344596
 11
12.2839783251
 21
1.9636344596
  0
LINE
  5
3AF
100
AcDbEntity
  8
0
100
AcDbLine
 62
2
  6
CONTINUOUS
 10
12.2535053251
 20
1.9636344596
 11
12.2446283251
 21
1.9636344596
  0
LINE
  5
3B0
100
AcDbEntity
  8
0
100
AcDbLine
 62
2
  6
CONTINUOUS
 10
12.2157033251
 20
1.9636344596
 11
12.1970933251
 21
1.9636344596
  0
LINE
  5
3B1
100
AcDbEntity
  8
0
100
AcDbLine
 62
2
  6
CONTINUOUS
 10
12.1609563251
 20
1.9636344596
 11
12.1111083251
 21
1.9636344596
  0
LINE
  5
3B2
100
AcDbEntity
  8
0
100
AcDbLine
 62
2
  6
CONTINUOUS
 10
12.3914993251
 20
1.9679544596
 11
12.3633513251
 21
1.9679544596
  0
LINE
  5
3B3
100
AcDbEntity
  8
0
100
AcDbLine
 62
2
  6
CONTINUOUS
 10
12.3331003251
 20
1.9679544596
 11
12.3192933251
 21
1.9679544596
  0
LINE
  5
3B4
100
AcDbEntity
  8
0
100
AcDbLine
 62
2
  6
CONTINUOUS
 10
12.2906143251
 20
1.9679544596
 11
12.2838223251
 21
1.9679544596
  0
LINE
  5
3B5
100
AcDbEntity
  8
0
100
AcDbLine
 62
2
  6
CONTINUOUS
 10
12.2537433251
 20
1.9679544596
 11
12.2455243251
 21
1.9679544596
  0
LINE
  5
3B6
100
AcDbEntity
  8
0
100
AcDbLine
 62
2
  6
CONTINUOUS
 10
12.2172993251
 20
1.9679544596
 11
12.2014513251
 21
1.9679544596
  0
LINE
  5
3B7
100
AcDbEntity
  8
0
100
AcDbLine
 62
2
  6
CONTINUOUS
 10
12.1636673251
 20
1.9679544596
 11
12.1098373251
 21
1.9679544596
  0
LINE
  5
3B8
100
AcDbEntity
  8
0
100
AcDbLine
 62
2
  6
CONTINUOUS
 10
12.3915113251
 20
1.9722744596
 11
12.3622643251
 21
1.9722744596
  0
LINE
  5
3B9
100
AcDbEntity
  8
0
100
AcDbLine
 62
2
  6
CONTINUOUS
 10
12.3294153251
 20
1.9722744596
 11
12.3204873251
 21
1.9722744596
  0
LINE
  5
3BA
100
AcDbEntity
  8
0
100
AcDbLine
 62
2
  6
CONTINUOUS
 10
12.2911793251
 20
1.9722744596
 11
12.2840763251
 21
1.9722744596
  0
LINE
  5
3BB
100
AcDbEntity
  8
0
100
AcDbLine
 62
2
  6
CONTINUOUS
 10
12.2541953251
 20
1.9722744596
 11
12.2463733251
 21
1.9722744596
  0
LINE
  5
3BC
100
AcDbEntity
  8
0
100
AcDbLine
 62
2
  6
CONTINUOUS
 10
12.2190393251
 20
1.9722744596
 11
12.2068593251
 21
1.9722744596
  0
LINE
  5
3BD
100
AcDbEntity
  8
0
100
AcDbLine
 62
2
  6
CONTINUOUS
 10
12.1667583251
 20
1.9722744596
 11
12.1087563251
 21
1.9722744596
  0
LINE
  5
3BE
100
AcDbEntity
  8
0
100
AcDbLine
 62
2
  6
CONTINUOUS
 10
12.3910513251
 20
1.9765944596
 11
12.3605933251
 21
1.9765944596
  0
LINE
  5
3BF
100
AcDbEntity
  8
0
100
AcDbLine
 62
2
  6
CONTINUOUS
 10
12.2923993251
 20
1.9765944596
 11
12.2847113251
 21
1.9765944596
  0
LINE
  5
3C0
100
AcDbEntity
  8
0
100
AcDbLine
 62
2
  6
CONTINUOUS
 10
12.2548593251
 20
1.9765944596
 11
12.2471473251
 21
1.9765944596
  0
LINE
  5
3C1
100
AcDbEntity
  8
0
100
AcDbLine
 62
2
  6
CONTINUOUS
 10
12.2203363251
 20
1.9765944596
 11
12.2130923251
 21
1.9765944596
  0
LINE
  5
3C2
100
AcDbEntity
  8
0
100
AcDbLine
 62
2
  6
CONTINUOUS
 10
12.1702793251
 20
1.9765944596
 11
12.1078403251
 21
1.9765944596
  0
LINE
  5
3C3
100
AcDbEntity
  8
0
100
AcDbLine
 62
2
  6
CONTINUOUS
 10
12.3900733251
 20
1.9809144596
 11
12.3582913251
 21
1.9809144596
  0
LINE
  5
3C4
100
AcDbEntity
  8
0
100
AcDbLine
 62
2
  6
CONTINUOUS
 10
12.2940723251
 20
1.9809144596
 11
12.2856323251
 21
1.9809144596
  0
LINE
  5
3C5
100
AcDbEntity
  8
0
100
AcDbLine
 62
2
  6
CONTINUOUS
 10
12.2557653251
 20
1.9809144596
 11
12.2477883251
 21
1.9809144596
  0
LINE
  5
3C6
100
AcDbEntity
  8
0
100
AcDbLine
 62
2
  6
CONTINUOUS
 10
12.2212443251
 20
1.9809144596
 11
12.2199223251
 21
1.9809144596
  0
LINE
  5
3C7
100
AcDbEntity
  8
0
100
AcDbLine
 62
2
  6
CONTINUOUS
 10
12.1744953251
 20
1.9809144596
 11
12.1365253251
 21
1.9809144596
  0
LINE
  5
3C8
100
AcDbEntity
  8
0
100
AcDbLine
 62
2
  6
CONTINUOUS
 10
12.1136143251
 20
1.9809144596
 11
12.1070343251
 21
1.9809144596
  0
LINE
  5
3C9
100
AcDbEntity
  8
0
100
AcDbLine
 62
2
  6
CONTINUOUS
 10
12.3886143251
 20
1.9852344596
 11
12.3551593251
 21
1.9852344596
  0
LINE
  5
3CA
100
AcDbEntity
  8
0
100
AcDbLine
 62
2
  6
CONTINUOUS
 10
12.2962583251
 20
1.9852344596
 11
12.2868663251
 21
1.9852344596
  0
LINE
  5
3CB
100
AcDbEntity
  8
0
100
AcDbLine
 62
2
  6
CONTINUOUS
 10
12.2569003251
 20
1.9852344596
 11
12.2482803251
 21
1.9852344596
  0
LINE
  5
3CC
100
AcDbEntity
  8
0
100
AcDbLine
 62
2
  6
CONTINUOUS
 10
12.1795013251
 20
1.9852344596
 11
12.1407943251
 21
1.9852344596
  0
LINE
  5
3CD
100
AcDbEntity
  8
0
100
AcDbLine
 62
2
  6
CONTINUOUS
 10
12.1091323251
 20
1.9852344596
 11
12.1063153251
 21
1.9852344596
  0
LINE
  5
3CE
100
AcDbEntity
  8
0
100
AcDbLine
 62
2
  6
CONTINUOUS
 10
12.3865693251
 20
1.9895544596
 11
12.3510603251
 21
1.9895544596
  0
LINE
  5
3CF
100
AcDbEntity
  8
0
100
AcDbLine
 62
2
  6
CONTINUOUS
 10
12.2995163251
 20
1.9895544596
 11
12.2887563251
 21
1.9895544596
  0
LINE
  5
3D0
100
AcDbEntity
  8
0
100
AcDbLine
 62
2
  6
CONTINUOUS
 10
12.2582273251
 20
1.9895544596
 11
12.2486733251
 21
1.9895544596
  0
LINE
  5
3D1
100
AcDbEntity
  8
0
100
AcDbLine
 62
2
  6
CONTINUOUS
 10
12.1849663251
 20
1.9895544596
 11
12.1423273251
 21
1.9895544596
  0
LINE
  5
3D2
100
AcDbEntity
  8
0
100
AcDbLine
 62
2
  6
CONTINUOUS
 10
12.1072953251
 20
1.9895544596
 11
12.1056583251
 21
1.9895544596
  0
LINE
  5
3D3
100
AcDbEntity
  8
0
100
AcDbLine
 62
2
  6
CONTINUOUS
 10
12.3840803251
 20
1.9938744596
 11
12.3456543251
 21
1.9938744596
  0
LINE
  5
3D4
100
AcDbEntity
  8
0
100
AcDbLine
 62
2
  6
CONTINUOUS
 10
12.3047323251
 20
1.9938744596
 11
12.2917413251
 21
1.9938744596
  0
LINE
  5
3D5
100
AcDbEntity
  8
0
100
AcDbLine
 62
2
  6
CONTINUOUS
 10
12.2599043251
 20
1.9938744596
 11
12.2490133251
 21
1.9938744596
  0
LINE
  5
3D6
100
AcDbEntity
  8
0
100
AcDbLine
 62
2
  6
CONTINUOUS
 10
12.1907643251
 20
1.9938744596
 11
12.1429403251
 21
1.9938744596
  0
LINE
  5
3D7
100
AcDbEntity
  8
0
100
AcDbLine
 62
2
  6
CONTINUOUS
 10
12.3817053251
 20
1.9981964596
 11
12.3379623251
 21
1.9981964596
  0
LINE
  5
3D8
100
AcDbEntity
  8
0
100
AcDbLine
 62
2
  6
CONTINUOUS
 10
12.3140483251
 20
1.9981964596
 11
12.2951923251
 21
1.9981964596
  0
LINE
  5
3D9
100
AcDbEntity
  8
0
100
AcDbLine
 62
2
  6
CONTINUOUS
 10
12.2621583251
 20
1.9981964596
 11
12.2530243251
 21
1.9981964596
  0
LINE
  5
3DA
100
AcDbEntity
  8
0
100
AcDbLine
 62
2
  6
CONTINUOUS
 10
12.1976903251
 20
1.9981964596
 11
12.1428023251
 21
1.9981964596
  0
LINE
  5
3DB
100
AcDbEntity
  8
0
100
AcDbLine
 62
2
  6
CONTINUOUS
 10
12.3797733251
 20
2.0025164596
 11
12.2993553251
 21
2.0025164596
  0
LINE
  5
3DC
100
AcDbEntity
  8
0
100
AcDbLine
 62
2
  6
CONTINUOUS
 10
12.2652373251
 20
2.0025164596
 11
12.2607053251
 21
2.0025164596
  0
LINE
  5
3DD
100
AcDbEntity
  8
0
100
AcDbLine
 62
2
  6
CONTINUOUS
 10
12.2073833251
 20
2.0025164596
 11
12.1420433251
 21
2.0025164596
  0
LINE
  5
3DE
100
AcDbEntity
  8
0
100
AcDbLine
 62
2
  6
CONTINUOUS
 10
12.3784633251
 20
2.0068364596
 11
12.3067583251
 21
2.0068364596
  0
LINE
  5
3DF
100
AcDbEntity
  8
0
100
AcDbLine
 62
2
  6
CONTINUOUS
 10
12.2690673251
 20
2.0068364596
 11
12.2677743251
 21
2.0068364596
  0
LINE
  5
3E0
100
AcDbEntity
  8
0
100
AcDbLine
 62
2
  6
CONTINUOUS
 10
12.2023083251
 20
2.0068364596
 11
12.1406813251
 21
2.0068364596
  0
LINE
  5
3E1
100
AcDbEntity
  8
0
100
AcDbLine
 62
2
  6
CONTINUOUS
 10
12.3777533251
 20
2.0111564596
 11
12.3376553251
 21
2.0111564596
  0
LINE
  5
3E2
100
AcDbEntity
  8
0
100
AcDbLine
 62
2
  6
CONTINUOUS
 10
12.1939403251
 20
2.0111564596
 11
12.1386983251
 21
2.0111564596
  0
LINE
  5
3E3
100
AcDbEntity
  8
0
100
AcDbLine
 62
2
  6
CONTINUOUS
 10
12.3776773251
 20
2.0154764596
 11
12.3419013251
 21
2.0154764596
  0
LINE
  5
3E4
100
AcDbEntity
  8
0
100
AcDbLine
 62
2
  6
CONTINUOUS
 10
12.1903603251
 20
2.0154764596
 11
12.1363003251
 21
2.0154764596
  0
LINE
  5
3E5
100
AcDbEntity
  8
0
100
AcDbLine
 62
2
  6
CONTINUOUS
 10
12.4148823251
 20
2.0197974596
 11
12.4131763251
 21
2.0197974596
  0
LINE
  5
3E6
100
AcDbEntity
  8
0
100
AcDbLine
 62
2
  6
CONTINUOUS
 10
12.3783603251
 20
2.0197974596
 11
12.3432323251
 21
2.0197974596
  0
LINE
  5
3E7
100
AcDbEntity
  8
0
100
AcDbLine
 62
2
  6
CONTINUOUS
 10
12.1880583251
 20
2.0197974596
 11
12.1338263251
 21
2.0197974596
  0
LINE
  5
3E8
100
AcDbEntity
  8
0
100
AcDbLine
 62
2
  6
CONTINUOUS
 10
12.1270743251
 20
1.9769764596
 11
12.1247303251
 21
1.9769864596
  0
LINE
  5
3E9
100
AcDbEntity
  8
0
100
AcDbLine
 62
2
  6
CONTINUOUS
 10
12.2687443251
 20
1.8871494596
 11
12.2710283251
 21
1.8871244596
  0
LINE
  5
3EA
100
AcDbEntity
  8
0
100
AcDbLine
 62
2
  6
CONTINUOUS
 10
12.3119573251
 20
1.9029364596
 11
12.3141793251
 21
1.9029044596
  0
LINE
  5
3EB
100
AcDbEntity
  8
0
100
AcDbLine
 62
2
  6
CONTINUOUS
 10
12.2568023251
 20
1.8484144596
 11
12.2543743251
 21
1.8484584596
  0
LINE
  5
3EC
100
AcDbEntity
  8
0
100
AcDbLine
 62
2
  6
CONTINUOUS
 10
12.3132963251
 20
1.9305264596
 11
12.3108763251
 21
1.9305734596
  0
LINE
  5
3ED
100
AcDbEntity
  8
0
100
AcDbLine
 62
2
  6
CONTINUOUS
 10
12.2234013251
 20
1.8733044596
 11
12.2256673251
 21
1.8732354596
  0
LINE
  5
3EE
100
AcDbEntity
  8
0
100
AcDbLine
 62
2
  6
CONTINUOUS
 10
12.2543743251
 20
1.8484584596
 11
12.2516373251
 21
1.8485674596
  0
LWPOLYLINE
  5
3EF
100
AcDbEntity
  8
0
100
AcDbPolyline
 62
2
  6
CONTINUOUS
 90
2
 70
0
 43
0.0120000003
 10
0.62
 20
5.5
 10
0.47
 20
5.575
  0
LINE
  5
3F0
100
AcDbEntity
  8
0
100
AcDbLine
 62
7
  6
CONTINUOUS
 10
1.8333640274
 20
0.7900974626
 11
2.4022606176
 21
0.8947379799
  0
LINE
  5
3F1
100
AcDbEntity
  8
0
100
AcDbLine
 62
2
  6
CONTINUOUS
 10
12.2949283251
 20
2.1357444596
 11
12.2927503251
 21
2.1357144596
  0
LINE
  5
3F2
100
AcDbEntity
  8
0
100
AcDbLine
 62
2
  6
CONTINUOUS
 10
12.2616223251
 20
2.1605454596
 11
12.2637933251
 21
2.1605674596
  0
LINE
  5
3F3
100
AcDbEntity
  8
0
100
AcDbLine
 62
2
  6
CONTINUOUS
 10
12.4142223251
 20
2.0241174596
 11
12.4112273251
 21
2.0241174596
  0
LINE
  5
3F4
100
AcDbEntity
  8
0
100
AcDbLine
 62
2
  6
CONTINUOUS
 10
12.3800003251
 20
2.0241174596
 11
12.3431963251
 21
2.0241174596
  0
LINE
  5
3F5
100
AcDbEntity
  8
0
100
AcDbLine
 62
2
  6
CONTINUOUS
 10
12.1866903251
 20
2.0241174596
 11
12.1318373251
 21
2.0241174596
  0
LINE
  5
3F6
100
AcDbEntity
  8
0
100
AcDbLine
 62
2
  6
CONTINUOUS
 10
12.3846413251
 20
2.0284384596
 11
12.3412583251
 21
2.0284384596
  0
LINE
  5
3F7
100
AcDbEntity
  8
0
100
AcDbLine
 62
2
  6
CONTINUOUS
 10
12.2570333251
 20
2.0284384596
 11
12.2528893251
 21
2.0284384596
  0
LINE
  5
3F8
100
AcDbEntity
  8
0
100
AcDbLine
 62
2
  6
CONTINUOUS
 10
12.1769703251
 20
2.0284384596
 11
12.1304203251
 21
2.0284384596
  0
LINE
  5
3F9
100
AcDbEntity
  8
0
100
AcDbLine
 62
2
  6
CONTINUOUS
 10
12.4064323251
 20
2.0284384596
 11
12.4134953251
 21
2.0284384596
  0
LINE
  5
3FA
100
AcDbEntity
  8
0
100
AcDbLine
 62
2
  6
CONTINUOUS
 10
12.4126823251
 20
2.0327584596
 11
12.3337473251
 21
2.0327584596
  0
LINE
  5
3FB
100
AcDbEntity
  8
0
100
AcDbLine
 62
2
  6
CONTINUOUS
 10
12.2642303251
 20
2.0327584596
 11
12.2568943251
 21
2.0327584596
  0
LINE
  5
3FC
100
AcDbEntity
  8
0
100
AcDbLine
 62
2
  6
CONTINUOUS
 10
12.2263253251
 20
2.0327584596
 11
12.2218543251
 21
2.0327584596
  0
LINE
  5
3FD
100
AcDbEntity
  8
0
100
AcDbLine
 62
2
  6
CONTINUOUS
 10
12.1714913251
 20
2.0327584596
 11
12.1294833251
 21
2.0327584596
  0
LINE
  5
3FE
100
AcDbEntity
  8
0
100
AcDbLine
 62
2
  6
CONTINUOUS
 10
12.4117523251
 20
2.0370784596
 11
12.3127493251
 21
2.0370784596
  0
LINE
  5
3FF
100
AcDbEntity
  8
0
100
AcDbLine
 62
2
  6
CONTINUOUS
 10
12.2716133251
 20
2.0370784596
 11
12.2600553251
 21
2.0370784596
  0
LINE
  5
400
100
AcDbEntity
  8
0
100
AcDbLine
 62
2
  6
CONTINUOUS
 10
12.2304603251
 20
2.0370784596
 11
12.2270353251
 21
2.0370784596
  0
LINE
  5
401
100
AcDbEntity
  8
0
100
AcDbLine
 62
2
  6
CONTINUOUS
 10
12.1683093251
 20
2.0370784596
 11
12.1290693251
 21
2.0370784596
  0
LINE
  5
402
100
AcDbEntity
  8
0
100
AcDbLine
 62
2
  6
CONTINUOUS
 10
12.4106593251
 20
2.0413984596
 11
12.3186673251
 21
2.0413984596
  0
LINE
  5
403
100
AcDbEntity
  8
0
100
AcDbLine
 62
2
  6
CONTINUOUS
 10
12.2778563251
 20
2.0413984596
 11
12.2635163251
 21
2.0413984596
  0
LINE
  5
404
100
AcDbEntity
  8
0
100
AcDbLine
 62
2
  6
CONTINUOUS
 10
12.2334623251
 20
2.0413984596
 11
12.2314753251
 21
2.0413984596
  0
LINE
  5
405
100
AcDbEntity
  8
0
100
AcDbLine
 62
2
  6
CONTINUOUS
 10
12.1660113251
 20
2.0413984596
 11
12.1291113251
 21
2.0413984596
  0
LINE
  5
406
100
AcDbEntity
  8
0
100
AcDbLine
 62
2
  6
CONTINUOUS
 10
12.4093673251
 20
2.0457194596
 11
12.3232163251
 21
2.0457194596
  0
LINE
  5
407
100
AcDbEntity
  8
0
100
AcDbLine
 62
2
  6
CONTINUOUS
 10
12.2809693251
 20
2.0457194596
 11
12.2661123251
 21
2.0457194596
  0
LINE
  5
408
100
AcDbEntity
  8
0
100
AcDbLine
 62
2
  6
CONTINUOUS
 10
12.1645843251
 20
2.0457194596
 11
12.1294393251
 21
2.0457194596
  0
LINE
  5
409
100
AcDbEntity
  8
0
100
AcDbLine
 62
2
  6
CONTINUOUS
 10
12.4078553251
 20
2.0500394596
 11
12.3280553251
 21
2.0500394596
  0
LINE
  5
40A
100
AcDbEntity
  8
0
100
AcDbLine
 62
2
  6
CONTINUOUS
 10
12.2807153251
 20
2.0500394596
 11
12.2672013251
 21
2.0500394596
  0
LINE
  5
40B
100
AcDbEntity
  8
0
100
AcDbLine
 62
2
  6
CONTINUOUS
 10
12.1638883251
 20
2.0500394596
 11
12.1299123251
 21
2.0500394596
  0
LINE
  5
40C
100
AcDbEntity
  8
0
100
AcDbLine
 62
2
  6
CONTINUOUS
 10
12.4061043251
 20
2.0543594596
 11
12.3332073251
 21
2.0543594596
  0
LINE
  5
40D
100
AcDbEntity
  8
0
100
AcDbLine
 62
2
  6
CONTINUOUS
 10
12.2805173251
 20
2.0543594596
 11
12.2677113251
 21
2.0543594596
  0
LINE
  5
40E
100
AcDbEntity
  8
0
100
AcDbLine
 62
2
  6
CONTINUOUS
 10
12.1637723251
 20
2.0543594596
 11
12.1305153251
 21
2.0543594596
  0
LINE
  5
40F
100
AcDbEntity
  8
0
100
AcDbLine
 62
2
  6
CONTINUOUS
 10
12.4041093251
 20
2.0586804596
 11
12.3366253251
 21
2.0586804596
  0
LINE
  5
410
100
AcDbEntity
  8
0
100
AcDbLine
 62
2
  6
CONTINUOUS
 10
12.2804803251
 20
2.0586804596
 11
12.2672813251
 21
2.0586804596
  0
LINE
  5
411
100
AcDbEntity
  8
0
100
AcDbLine
 62
2
  6
CONTINUOUS
 10
12.2152033251
 20
2.0586804596
 11
12.2131953251
 21
2.0586804596
  0
LINE
  5
412
100
AcDbEntity
  8
0
100
AcDbLine
 62
2
  6
CONTINUOUS
 10
12.1638943251
 20
2.0586804596
 11
12.1312973251
 21
2.0586804596
  0
LINE
  5
413
100
AcDbEntity
  8
0
100
AcDbLine
 62
2
  6
CONTINUOUS
 10
12.4019023251
 20
2.0629994596
 11
12.3393753251
 21
2.0629994596
  0
LINE
  5
414
100
AcDbEntity
  8
0
100
AcDbLine
 62
2
  6
CONTINUOUS
 10
12.2807913251
 20
2.0629994596
 11
12.2654583251
 21
2.0629994596
  0
LINE
  5
415
100
AcDbEntity
  8
0
100
AcDbLine
 62
2
  6
CONTINUOUS
 10
12.2191293251
 20
2.0629994596
 11
12.2146583251
 21
2.0629994596
  0
LINE
  5
416
100
AcDbEntity
  8
0
100
AcDbLine
 62
2
  6
CONTINUOUS
 10
12.1873063251
 20
2.0629994596
 11
12.1856763251
 21
2.0629994596
  0
LINE
  5
417
100
AcDbEntity
  8
0
100
AcDbLine
 62
2
  6
CONTINUOUS
 10
12.1642883251
 20
2.0629994596
 11
12.1323863251
 21
2.0629994596
  0
LINE
  5
418
100
AcDbEntity
  8
0
100
AcDbLine
 62
2
  6
CONTINUOUS
 10
12.3995293251
 20
2.0673204596
 11
12.3416703251
 21
2.0673204596
  0
LINE
  5
419
100
AcDbEntity
  8
0
100
AcDbLine
 62
2
  6
CONTINUOUS
 10
12.3105843251
 20
2.0673204596
 11
12.3083923251
 21
2.0673204596
  0
LINE
  5
41A
100
AcDbEntity
  8
0
100
AcDbLine
 62
2
  6
CONTINUOUS
 10
12.2815963251
 20
2.0673204596
 11
12.2507923251
 21
2.0673204596
  0
LINE
  5
41B
100
AcDbEntity
  8
0
100
AcDbLine
 62
2
  6
CONTINUOUS
 10
12.2222073251
 20
2.0673204596
 11
12.2169203251
 21
2.0673204596
  0
LINE
  5
41C
100
AcDbEntity
  8
0
100
AcDbLine
 62
2
  6
CONTINUOUS
 10
12.1888383251
 20
2.0673204596
 11
12.1857103251
 21
2.0673204596
  0
LINE
  5
41D
100
AcDbEntity
  8
0
100
AcDbLine
 62
2
  6
CONTINUOUS
 10
12.1650633251
 20
2.0673204596
 11
12.1339583251
 21
2.0673204596
  0
LINE
  5
41E
100
AcDbEntity
  8
0
100
AcDbLine
 62
2
  6
CONTINUOUS
 10
12.3969793251
 20
2.0716404596
 11
12.3436613251
 21
2.0716404596
  0
LINE
  5
41F
100
AcDbEntity
  8
0
100
AcDbLine
 62
2
  6
CONTINUOUS
 10
12.3142183251
 20
2.0716404596
 11
12.3102623251
 21
2.0716404596
  0
LINE
  5
420
100
AcDbEntity
  8
0
100
AcDbLine
 62
2
  6
CONTINUOUS
 10
12.2827943251
 20
2.0716404596
 11
12.2522383251
 21
2.0716404596
  0
LINE
  5
421
100
AcDbEntity
  8
0
100
AcDbLine
 62
2
  6
CONTINUOUS
 10
12.2251203251
 20
2.0716404596
 11
12.2194873251
 21
2.0716404596
  0
LINE
  5
422
100
AcDbEntity
  8
0
100
AcDbLine
 62
2
  6
CONTINUOUS
 10
12.1902683251
 20
2.0716404596
 11
12.1860823251
 21
2.0716404596
  0
LINE
  5
423
100
AcDbEntity
  8
0
100
AcDbLine
 62
2
  6
CONTINUOUS
 10
12.1661753251
 20
2.0716404596
 11
12.1358213251
 21
2.0716404596
  0
LINE
  5
424
100
AcDbEntity
  8
0
100
AcDbLine
 62
2
  6
CONTINUOUS
 10
12.3942573251
 20
2.0759614596
 11
12.3447793251
 21
2.0759614596
  0
LINE
  5
425
100
AcDbEntity
  8
0
100
AcDbLine
 62
2
  6
CONTINUOUS
 10
12.3176453251
 20
2.0759614596
 11
12.3124783251
 21
2.0759614596
  0
LINE
  5
426
100
AcDbEntity
  8
0
100
AcDbLine
 62
2
  6
CONTINUOUS
 10
12.2842073251
 20
2.0759614596
 11
12.2536083251
 21
2.0759614596
  0
LINE
  5
427
100
AcDbEntity
  8
0
100
AcDbLine
 62
2
  6
CONTINUOUS
 10
12.2280003251
 20
2.0759614596
 11
12.2222243251
 21
2.0759614596
  0
LINE
  5
428
100
AcDbEntity
  8
0
100
AcDbLine
 62
2
  6
CONTINUOUS
 10
12.1917283251
 20
2.0759614596
 11
12.1865573251
 21
2.0759614596
  0
LINE
  5
429
100
AcDbEntity
  8
0
100
AcDbLine
 62
2
  6
CONTINUOUS
 10
12.1677643251
 20
2.0759614596
 11
12.1375873251
 21
2.0759614596
  0
LINE
  5
42A
100
AcDbEntity
  8
0
100
AcDbLine
 62
2
  6
CONTINUOUS
 10
12.3913833251
 20
2.0802814596
 11
12.3452103251
 21
2.0802814596
  0
LINE
  5
42B
100
AcDbEntity
  8
0
100
AcDbLine
 62
2
  6
CONTINUOUS
 10
12.3191863251
 20
2.0802814596
 11
12.3157203251
 21
2.0802814596
  0
LINE
  5
42C
100
AcDbEntity
  8
0
100
AcDbLine
 62
2
  6
CONTINUOUS
 10
12.2857773251
 20
2.0802814596
 11
12.2548403251
 21
2.0802814596
  0
LINE
  5
42D
100
AcDbEntity
  8
0
100
AcDbLine
 62
2
  6
CONTINUOUS
 10
12.2296323251
 20
2.0802814596
 11
12.2254153251
 21
2.0802814596
  0
LINE
  5
42E
100
AcDbEntity
  8
0
100
AcDbLine
 62
2
  6
CONTINUOUS
 10
12.1703483251
 20
2.0802814596
 11
12.1392283251
 21
2.0802814596
  0
LINE
  5
42F
100
AcDbEntity
  8
0
100
AcDbLine
 62
2
  6
CONTINUOUS
 10
12.1855573251
 20
2.0802814596
 11
12.1936163251
 21
2.0802814596
  0
LINE
  5
430
100
AcDbEntity
  8
0
100
AcDbLine
 62
2
  6
CONTINUOUS
 10
12.3883773251
 20
2.0846014596
 11
12.3454713251
 21
2.0846014596
  0
LINE
  5
431
100
AcDbEntity
  8
0
100
AcDbLine
 62
2
  6
CONTINUOUS
 10
12.2877763251
 20
2.0846014596
 11
12.2557043251
 21
2.0846014596
  0
LINE
  5
432
100
AcDbEntity
  8
0
100
AcDbLine
 62
2
  6
CONTINUOUS
 10
12.1962843251
 20
2.0846014596
 11
12.1409253251
 21
2.0846014596
  0
LINE
  5
433
100
AcDbEntity
  8
0
100
AcDbLine
 62
2
  6
CONTINUOUS
 10
12.3851943251
 20
2.0889214596
 11
12.3451383251
 21
2.0889214596
  0
LINE
  5
434
100
AcDbEntity
  8
0
100
AcDbLine
 62
2
  6
CONTINUOUS
 10
12.2904563251
 20
2.0889214596
 11
12.2556873251
 21
2.0889214596
  0
LINE
  5
435
100
AcDbEntity
  8
0
100
AcDbLine
 62
2
  6
CONTINUOUS
 10
12.1993723251
 20
2.0889214596
 11
12.1428193251
 21
2.0889214596
  0
LINE
  5
436
100
AcDbEntity
  8
0
100
AcDbLine
 62
2
  6
CONTINUOUS
 10
12.3817493251
 20
2.0932414596
 11
12.3442533251
 21
2.0932414596
  0
LINE
  5
437
100
AcDbEntity
  8
0
100
AcDbLine
 62
2
  6
CONTINUOUS
 10
12.2936353251
 20
2.0932414596
 11
12.2548673251
 21
2.0932414596
  0
LINE
  5
438
100
AcDbEntity
  8
0
100
AcDbLine
 62
2
  6
CONTINUOUS
 10
12.2025083251
 20
2.0932414596
 11
12.1451103251
 21
2.0932414596
  0
LINE
  5
439
100
AcDbEntity
  8
0
100
AcDbLine
 62
2
  6
CONTINUOUS
 10
12.3779103251
 20
2.0975614596
 11
12.3429503251
 21
2.0975614596
  0
LINE
  5
43A
100
AcDbEntity
  8
0
100
AcDbLine
 62
2
  6
CONTINUOUS
 10
12.2973113251
 20
2.0975614596
 11
12.2536923251
 21
2.0975614596
  0
LINE
  5
43B
100
AcDbEntity
  8
0
100
AcDbLine
 62
2
  6
CONTINUOUS
 10
12.2064893251
 20
2.0975614596
 11
12.1478833251
 21
2.0975614596
  0
LINE
  5
43C
100
AcDbEntity
  8
0
100
AcDbLine
 62
2
  6
CONTINUOUS
 10
12.3734143251
 20
2.1018824596
 11
12.3401483251
 21
2.1018824596
  0
LINE
  5
43D
100
AcDbEntity
  8
0
100
AcDbLine
 62
2
  6
CONTINUOUS
 10
12.3023863251
 20
2.1018824596
 11
12.2520533251
 21
2.1018824596
  0
LINE
  5
43E
100
AcDbEntity
  8
0
100
AcDbLine
 62
2
  6
CONTINUOUS
 10
12.2117323251
 20
2.1018824596
 11
12.1509833251
 21
2.1018824596
  0
LINE
  5
43F
100
AcDbEntity
  8
0
100
AcDbLine
 62
2
  6
CONTINUOUS
 10
12.3681103251
 20
2.1062014596
 11
12.3345783251
 21
2.1062014596
  0
LINE
  5
440
100
AcDbEntity
  8
0
100
AcDbLine
 62
2
  6
CONTINUOUS
 10
12.2185603251
 20
2.1062014596
 11
12.1541283251
 21
2.1062014596
  0
LINE
  5
441
100
AcDbEntity
  8
0
100
AcDbLine
 62
2
  6
CONTINUOUS
 10
12.2482003251
 20
2.1062014596
 11
12.3097493251
 21
2.1062014596
  0
LINE
  5
442
100
AcDbEntity
  8
0
100
AcDbLine
 62
2
  6
CONTINUOUS
 10
12.3622013251
 20
2.1105224596
 11
12.1572523251
 21
2.1105224596
  0
LINE
  5
443
100
AcDbEntity
  8
0
100
AcDbLine
 62
2
  6
CONTINUOUS
 10
12.3562713251
 20
2.1148434596
 11
12.1605753251
 21
2.1148434596
  0
LINE
  5
444
100
AcDbEntity
  8
0
100
AcDbLine
 62
2
  6
CONTINUOUS
 10
12.3499083251
 20
2.1191634596
 11
12.1643153251
 21
2.1191634596
  0
LINE
  5
445
100
AcDbEntity
  8
0
100
AcDbLine
 62
2
  6
CONTINUOUS
 10
12.3413233251
 20
2.1234834596
 11
12.2609053251
 21
2.1234834596
  0
LINE
  5
446
100
AcDbEntity
  8
0
100
AcDbLine
 62
2
  6
CONTINUOUS
 10
12.2421453251
 20
2.1234834596
 11
12.1687153251
 21
2.1234834596
  0
LINE
  5
447
100
AcDbEntity
  8
0
100
AcDbLine
 62
2
  6
CONTINUOUS
 10
12.3302343251
 20
2.1278034596
 11
12.2700953251
 21
2.1278034596
  0
LINE
  5
448
100
AcDbEntity
  8
0
100
AcDbLine
 62
2
  6
CONTINUOUS
 10
12.2370253251
 20
2.1278034596
 11
12.1738333251
 21
2.1278034596
  0
LINE
  5
449
100
AcDbEntity
  8
0
100
AcDbLine
 62
2
  6
CONTINUOUS
 10
12.3196803251
 20
2.1321234596
 11
12.2779403251
 21
2.1321234596
  0
LINE
  5
44A
100
AcDbEntity
  8
0
100
AcDbLine
 62
2
  6
CONTINUOUS
 10
12.2344373251
 20
2.1321254596
 11
12.1795663251
 21
2.1321254596
  0
LINE
  5
44B
100
AcDbEntity
  8
0
100
AcDbLine
 62
2
  6
CONTINUOUS
 10
12.2329343251
 20
2.1364454596
 11
12.1857923251
 21
2.1364454596
  0
LINE
  5
44C
100
AcDbEntity
  8
0
100
AcDbLine
 62
2
  6
CONTINUOUS
 10
12.2328603251
 20
2.1407654596
 11
12.1924853251
 21
2.1407654596
  0
LINE
  5
44D
100
AcDbEntity
  8
0
100
AcDbLine
 62
2
  6
CONTINUOUS
 10
12.2336723251
 20
2.1450854596
 11
12.1999103251
 21
2.1450854596
  0
LINE
  5
44E
100
AcDbEntity
  8
0
100
AcDbLine
 62
2
  6
CONTINUOUS
 10
12.2355643251
 20
2.1494054596
 11
12.2084323251
 21
2.1494054596
  0
LINE
  5
44F
100
AcDbEntity
  8
0
100
AcDbLine
 62
2
  6
CONTINUOUS
 10
12.2387043251
 20
2.1537254596
 11
12.2195843251
 21
2.1537254596
  0
LINE
  5
450
100
AcDbEntity
  8
0
100
AcDbLine
 62
2
  6
CONTINUOUS
 10
12.2462073251
 20
2.1577574596
 11
12.2367473251
 21
2.1577574596
  0
LINE
  5
451
100
AcDbEntity
  8
0
100
AcDbLine
 62
2
  6
CONTINUOUS
 10
12.3935213251
 20
2.0320054596
 11
12.3958653251
 21
2.0319944596
  0
LINE
  5
452
100
AcDbEntity
  8
0
100
AcDbLine
 62
2
  6
CONTINUOUS
 10
12.2518493251
 20
2.1218324596
 11
12.2495683251
 21
2.1218564596
  0
LINE
  5
453
100
AcDbEntity
  8
0
100
AcDbLine
 62
2
  6
CONTINUOUS
 10
12.2637933251
 20
2.1605674596
 11
12.2662213251
 21
2.1605234596
  0
LINE
  5
454
100
AcDbEntity
  8
0
100
AcDbLine
 62
2
  6
CONTINUOUS
 10
12.3242503251
 20
2.0068574596
 11
12.3218703251
 21
2.0069014596
  0
LINE
  5
455
100
AcDbEntity
  8
0
100
AcDbLine
 62
2
  6
CONTINUOUS
 10
12.3218353251
 20
2.1087574596
 11
12.3242313251
 21
2.1087124596
  0
LINE
  5
456
100
AcDbEntity
  8
0
100
AcDbLine
 62
2
  6
CONTINUOUS
 10
12.2367333251
 20
2.1101444596
 11
12.2344353251
 21
2.1101954596
  0
LINE
  5
457
100
AcDbEntity
  8
0
100
AcDbLine
 62
2
  6
CONTINUOUS
 10
12.2971963251
 20
2.1356774596
 11
12.2949283251
 21
2.1357444596
  0
LINE
  5
458
100
AcDbEntity
  8
0
100
AcDbLine
 62
2
  6
CONTINUOUS
 10
12.2154093251
 20
2.0294804596
 11
12.2175933251
 21
2.0294154596
  0
LINE
  5
459
100
AcDbEntity
  8
0
100
AcDbLine
 62
2
  6
CONTINUOUS
 10
12.3231903251
 20
2.0346964596
 11
12.3255513251
 21
2.0346254596
  0
LINE
  5
45A
100
AcDbEntity
  8
0
100
AcDbLine
 62
2
  6
CONTINUOUS
 10
12.2571213251
 20
2.0664644596
 11
12.2594083251
 21
2.0663944596
  0
LINE
  5
45B
100
AcDbEntity
  8
0
100
AcDbLine
 62
2
  6
CONTINUOUS
 10
12.2662213251
 20
2.1605234596
 11
12.2689583251
 21
2.1604124596
  0
LINE
  5
45C
100
AcDbEntity
  8
0
100
AcDbLine
 62
2
  6
CONTINUOUS
 10
12.1834823251
 20
1.9044254596
 11
12.1858893251
 21
1.9043054596
  0
LINE
  5
45D
100
AcDbEntity
  8
0
100
AcDbLine
 62
2
  6
CONTINUOUS
 10
12.2516373251
 20
1.8485674596
 11
12.2489463251
 21
1.8487184596
  0
LINE
  5
45E
100
AcDbEntity
  8
0
100
AcDbLine
 62
2
  6
CONTINUOUS
 10
12.2689583251
 20
2.1604124596
 11
12.2716493251
 21
2.1602614596
  0
LINE
  5
45F
100
AcDbEntity
  8
0
100
AcDbLine
 62
2
  6
CONTINUOUS
 10
12.3096173251
 20
1.9030694596
 11
12.3119573251
 21
1.9029364596
  0
LINE
  5
460
100
AcDbEntity
  8
0
100
AcDbLine
 62
2
  6
CONTINUOUS
 10
12.3138993251
 20
1.9377774596
 11
12.3161733251
 21
1.9376444596
  0
LINE
  5
461
100
AcDbEntity
  8
0
100
AcDbLine
 62
2
  6
CONTINUOUS
 10
12.3303163251
 20
2.0003254596
 11
12.3280633251
 21
2.0004584596
  0
LINE
  5
462
100
AcDbEntity
  8
0
100
AcDbLine
 62
2
  6
CONTINUOUS
 10
12.1873793251
 20
1.9331624596
 11
12.1897883251
 21
1.9330134596
  0
LINE
  5
463
100
AcDbEntity
  8
0
100
AcDbLine
 62
2
  6
CONTINUOUS
 10
12.2210213251
 20
1.8734584596
 11
12.2234013251
 21
1.8733044596
  0
LINE
  5
464
100
AcDbEntity
  8
0
100
AcDbLine
 62
2
  6
CONTINUOUS
 10
12.2716493251
 20
2.1602614596
 11
12.2742623251
 21
2.1600914596
  0
LINE
  5
465
100
AcDbEntity
  8
0
100
AcDbLine
 62
2
  6
CONTINUOUS
 10
12.2489463251
 20
1.8487184596
 11
12.2463333251
 21
1.8488894596
  0
LINE
  5
466
100
AcDbEntity
  8
0
100
AcDbLine
 62
2
  6
CONTINUOUS
 10
12.2995733251
 20
2.1355214596
 11
12.2971963251
 21
2.1356774596
  0
LINE
  5
467
100
AcDbEntity
  8
0
100
AcDbLine
 62
2
  6
CONTINUOUS
 10
12.2742623251
 20
2.1600914596
 11
12.2768893251
 21
2.1599044596
  0
LINE
  5
468
100
AcDbEntity
  8
0
100
AcDbLine
 62
2
  6
CONTINUOUS
 10
12.2463333251
 20
1.8488894596
 11
12.2437073251
 21
1.8490774596
  0
LINE
  5
469
100
AcDbEntity
  8
0
100
AcDbLine
 62
2
  6
CONTINUOUS
 10
12.2072803251
 20
2.0058774596
 11
12.2096513251
 21
2.0057014596
  0
LINE
  5
46A
100
AcDbEntity
  8
0
100
AcDbLine
 62
2
  6
CONTINUOUS
 10
12.3242313251
 20
2.1087124596
 11
12.3267493251
 21
2.1085244596
  0
LINE
  5
46B
100
AcDbEntity
  8
0
100
AcDbLine
 62
2
  6
CONTINUOUS
 10
12.2437073251
 20
1.8490774596
 11
12.2412063251
 21
1.8492654596
  0
LINE
  5
46C
100
AcDbEntity
  8
0
100
AcDbLine
 62
2
  6
CONTINUOUS
 10
12.2768893251
 20
2.1599044596
 11
12.2793873251
 21
2.1597144596
  0
LINE
  5
46D
100
AcDbEntity
  8
0
100
AcDbLine
 62
2
  6
CONTINUOUS
 10
12.2793873251
 20
2.1597144596
 11
12.2816173251
 21
2.1595404596
  0
LINE
  5
46E
100
AcDbEntity
  8
0
100
AcDbLine
 62
2
  6
CONTINUOUS
 10
12.2412063251
 20
1.8492654596
 11
12.2371643251
 21
1.8495864596
  0
LINE
  5
46F
100
AcDbEntity
  8
0
100
AcDbLine
 62
2
  6
CONTINUOUS
 10
12.2816173251
 20
2.1595404596
 11
12.2834313251
 21
2.1593954596
  0
LINE
  5
470
100
AcDbEntity
  8
0
100
AcDbLine
 62
2
  6
CONTINUOUS
 10
12.3071033251
 20
1.9032854596
 11
12.3096173251
 21
1.9030694596
  0
LINE
  5
471
100
AcDbEntity
  8
0
100
AcDbLine
 62
2
  6
CONTINUOUS
 10
12.3020873251
 20
2.1352954596
 11
12.2995733251
 21
2.1355214596
  0
LINE
  5
472
100
AcDbEntity
  8
0
100
AcDbLine
 62
2
  6
CONTINUOUS
 10
12.2185093251
 20
1.8736874596
 11
12.2210213251
 21
1.8734584596
  0
LINE
  5
473
100
AcDbEntity
  8
0
100
AcDbLine
 62
2
  6
CONTINUOUS
 10
12.2495683251
 20
2.1218564596
 11
12.2473383251
 21
2.1220814596
  0
LINE
  5
474
100
AcDbEntity
  8
0
100
AcDbLine
 62
2
  6
CONTINUOUS
 10
12.2710283251
 20
1.8871244596
 11
12.2732573251
 21
1.8868994596
  0
LINE
  5
475
100
AcDbEntity
  8
0
100
AcDbLine
 62
2
  6
CONTINUOUS
 10
12.3047673251
 20
1.9035234596
 11
12.3071033251
 21
1.9032854596
  0
LINE
  5
476
100
AcDbEntity
  8
0
100
AcDbLine
 62
2
  6
CONTINUOUS
 10
12.3218703251
 20
2.0069014596
 11
12.3195223251
 21
2.0071524596
  0
LINE
  5
477
100
AcDbEntity
  8
0
100
AcDbLine
 62
2
  6
CONTINUOUS
 10
12.2161343251
 20
1.8739414596
 11
12.2185093251
 21
1.8736874596
  0
LINE
  5
478
100
AcDbEntity
  8
0
100
AcDbLine
 62
2
  6
CONTINUOUS
 10
12.3044613251
 20
2.1350384596
 11
12.3020873251
 21
2.1352954596
  0
LINE
  5
479
100
AcDbEntity
  8
0
100
AcDbLine
 62
2
  6
CONTINUOUS
 10
12.3108763251
 20
1.9305734596
 11
12.3086333251
 21
1.9308194596
  0
LINE
  5
47A
100
AcDbEntity
  8
0
100
AcDbLine
 62
2
  6
CONTINUOUS
 10
12.3255513251
 20
2.0346254596
 11
12.3278863251
 21
2.0343654596
  0
LINE
  5
47B
100
AcDbEntity
  8
0
100
AcDbLine
 62
2
  6
CONTINUOUS
 10
12.3025063251
 20
1.9037834596
 11
12.3047673251
 21
1.9035234596
  0
LINE
  5
47C
100
AcDbEntity
  8
0
100
AcDbLine
 62
2
  6
CONTINUOUS
 10
12.3243913251
 20
1.9740724596
 11
12.3266233251
 21
1.9738014596
  0
LINE
  5
47D
100
AcDbEntity
  8
0
100
AcDbLine
 62
2
  6
CONTINUOUS
 10
12.2138133251
 20
1.8742254596
 11
12.2161343251
 21
1.8739414596
  0
LINE
  5
47E
100
AcDbEntity
  8
0
100
AcDbLine
 62
2
  6
CONTINUOUS
 10
12.3958653251
 20
2.0319944596
 11
12.3981313251
 21
2.0317084596
  0
LINE
  5
47F
100
AcDbEntity
  8
0
100
AcDbLine
 62
2
  6
CONTINUOUS
 10
12.1247303251
 20
1.9769864596
 11
12.1224663251
 21
1.9772734596
  0
LINE
  5
480
100
AcDbEntity
  8
0
100
AcDbLine
 62
2
  6
CONTINUOUS
 10
12.3001743251
 20
1.9040904596
 11
12.3025063251
 21
1.9037834596
  0
LINE
  5
481
100
AcDbEntity
  8
0
100
AcDbLine
 62
2
  6
CONTINUOUS
 10
12.2114513251
 20
1.8745524596
 11
12.2138133251
 21
1.8742254596
  0
LINE
  5
482
100
AcDbEntity
  8
0
100
AcDbLine
 62
2
  6
CONTINUOUS
 10
12.1810983251
 20
1.9047564596
 11
12.1834823251
 21
1.9044254596
  0
LINE
  5
483
100
AcDbEntity
  8
0
100
AcDbLine
 62
2
  6
CONTINUOUS
 10
12.3324363251
 20
2.0000224596
 11
12.3303163251
 21
2.0003254596
  0
LINE
  5
484
100
AcDbEntity
  8
0
100
AcDbLine
 62
2
  6
CONTINUOUS
 10
12.2049703251
 20
2.0062284596
 11
12.2072803251
 21
2.0058774596
  0
LINE
  5
485
100
AcDbEntity
  8
0
100
AcDbLine
 62
2
  6
CONTINUOUS
 10
12.2978183251
 20
1.9044504596
 11
12.3001743251
 21
1.9040904596
  0
LINE
  5
486
100
AcDbEntity
  8
0
100
AcDbLine
 62
2
  6
CONTINUOUS
 10
12.2090943251
 20
1.8749274596
 11
12.2114513251
 21
1.8745524596
  0
LINE
  5
487
100
AcDbEntity
  8
0
100
AcDbLine
 62
2
  6
CONTINUOUS
 10
12.2067883251
 20
1.8753524596
 11
12.2090943251
 21
1.8749274596
  0
LINE
  5
488
100
AcDbEntity
  8
0
100
AcDbLine
 62
2
  6
CONTINUOUS
 10
12.3067833251
 20
2.1347564596
 11
12.3044613251
 21
2.1350384596
  0
LINE
  5
489
100
AcDbEntity
  8
0
100
AcDbLine
 62
2
  6
CONTINUOUS
 10
12.2389923251
 20
2.1098434596
 11
12.2367333251
 21
2.1101444596
  0
LINE
  5
48A
100
AcDbEntity
  8
0
100
AcDbLine
 62
2
  6
CONTINUOUS
 10
12.3091443251
 20
2.1344294596
 11
12.3067833251
 21
2.1347564596
  0
LINE
  5
48B
100
AcDbEntity
  8
0
100
AcDbLine
 62
2
  6
CONTINUOUS
 10
12.3267493251
 20
2.1085244596
 11
12.3290553251
 21
2.1081954596
  0
LINE
  5
48C
100
AcDbEntity
  8
0
100
AcDbLine
 62
2
  6
CONTINUOUS
 10
12.3115003251
 20
2.1340544596
 11
12.3091443251
 21
2.1344294596
  0
LINE
  5
48D
100
AcDbEntity
  8
0
100
AcDbLine
 62
2
  6
CONTINUOUS
 10
12.3115003251
 20
1.9381844596
 11
12.3138993251
 21
1.9377774596
  0
LINE
  5
48E
100
AcDbEntity
  8
0
100
AcDbLine
 62
2
  6
CONTINUOUS
 10
12.2954823251
 20
1.9048704596
 11
12.2978183251
 21
1.9044504596
  0
LINE
  5
48F
100
AcDbEntity
  8
0
100
AcDbLine
 62
2
  6
CONTINUOUS
 10
12.3138063251
 20
2.1336294596
 11
12.3115003251
 21
2.1340544596
  0
LINE
  5
490
100
AcDbEntity
  8
0
100
AcDbLine
 62
2
  6
CONTINUOUS
 10
12.1822403251
 20
2.0833864596
 11
12.1798913251
 21
2.0838414596
  0
LINE
  5
491
100
AcDbEntity
  8
0
100
AcDbLine
 62
2
  6
CONTINUOUS
 10
12.3086333251
 20
1.9308194596
 11
12.3062663251
 21
1.9312894596
  0
LINE
  5
492
100
AcDbEntity
  8
0
100
AcDbLine
 62
2
  6
CONTINUOUS
 10
12.2473383251
 20
2.1220814596
 11
12.2449243251
 21
2.1225684596
  0
LINE
  5
493
100
AcDbEntity
  8
0
100
AcDbLine
 62
2
  6
CONTINUOUS
 10
12.2732573251
 20
1.8868994596
 11
12.2756723251
 21
1.8864114596
  0
LINE
  5
494
100
AcDbEntity
  8
0
100
AcDbLine
 62
2
  6
CONTINUOUS
 10
12.1224663251
 20
1.9772734596
 11
12.1202593251
 21
1.9777254596
  0
LINE
  5
495
100
AcDbEntity
  8
0
100
AcDbLine
 62
2
  6
CONTINUOUS
 10
12.3981313251
 20
2.0317084596
 11
12.4003363251
 21
2.0312554596
  0
LINE
  5
496
100
AcDbEntity
  8
0
100
AcDbLine
 62
2
  6
CONTINUOUS
 10
12.3278863251
 20
2.0343654596
 11
12.3303523251
 21
2.0338444596
  0
LINE
  5
497
100
AcDbEntity
  8
0
100
AcDbLine
 62
2
  6
CONTINUOUS
 10
12.2932183251
 20
1.9053544596
 11
12.2954823251
 21
1.9048704596
  0
LINE
  5
498
100
AcDbEntity
  8
0
100
AcDbLine
 62
2
  6
CONTINUOUS
 10
12.1787143251
 20
1.9052674596
 11
12.1810983251
 21
1.9047564596
  0
LINE
  5
499
100
AcDbEntity
  8
0
100
AcDbLine
 62
2
  6
CONTINUOUS
 10
12.2045793251
 20
1.8758304596
 11
12.2067883251
 21
1.8753524596
  0
LINE
  5
49A
100
AcDbEntity
  8
0
100
AcDbLine
 62
2
  6
CONTINUOUS
 10
12.3160163251
 20
2.1331504596
 11
12.3138063251
 21
2.1336294596
  0
LINE
  5
49B
100
AcDbEntity
  8
0
100
AcDbLine
 62
2
  6
CONTINUOUS
 10
12.2027293251
 20
2.0067164596
 11
12.2049703251
 21
2.0062284596
  0
LINE
  5
49C
100
AcDbEntity
  8
0
100
AcDbLine
 62
2
  6
CONTINUOUS
 10
12.3290553251
 20
2.1081954596
 11
12.3310753251
 21
2.1077344596
  0
LINE
  5
49D
100
AcDbEntity
  8
0
100
AcDbLine
 62
2
  6
CONTINUOUS
 10
12.3195223251
 20
2.0071524596
 11
12.3171113251
 21
2.0077074596
  0
LINE
  5
49E
100
AcDbEntity
  8
0
100
AcDbLine
 62
2
  6
CONTINUOUS
 10
12.2412193251
 20
2.1092954596
 11
12.2389923251
 21
2.1098434596
  0
LINE
  5
49F
100
AcDbEntity
  8
0
100
AcDbLine
 62
2
  6
CONTINUOUS
 10
12.3347023251
 20
1.9994604596
 11
12.3324363251
 21
2.0000224596
  0
LINE
  5
4A0
100
AcDbEntity
  8
0
100
AcDbLine
 62
2
  6
CONTINUOUS
 10
12.3091153251
 20
1.9387914596
 11
12.3115003251
 21
1.9381844596
  0
LINE
  5
4A1
100
AcDbEntity
  8
0
100
AcDbLine
 62
2
  6
CONTINUOUS
 10
12.2910683251
 20
1.9059094596
 11
12.2932183251
 21
1.9053544596
  0
LINE
  5
4A2
100
AcDbEntity
  8
0
100
AcDbLine
 62
2
  6
CONTINUOUS
 10
12.3181053251
 20
2.1326094596
 11
12.3160163251
 21
2.1331504596
  0
LINE
  5
4A3
100
AcDbEntity
  8
0
100
AcDbLine
 62
2
  6
CONTINUOUS
 10
12.2024893251
 20
1.8763724596
 11
12.2045793251
 21
1.8758304596
  0
LINE
  5
4A4
100
AcDbEntity
  8
0
100
AcDbLine
 62
2
  6
CONTINUOUS
 10
12.1763683251
 20
1.9059154596
 11
12.1787143251
 21
1.9052674596
  0
LINE
  5
4A5
100
AcDbEntity
  8
0
100
AcDbLine
 62
2
  6
CONTINUOUS
 10
12.1845833251
 20
2.0256464596
 11
12.1864523251
 21
2.0251134596
  0
LINE
  5
4A6
100
AcDbEntity
  8
0
100
AcDbLine
 62
2
  6
CONTINUOUS
 10
12.1202593251
 20
1.9777254596
 11
12.1180643251
 21
1.9783704596
  0
LINE
  5
4A7
100
AcDbEntity
  8
0
100
AcDbLine
 62
2
  6
CONTINUOUS
 10
12.2756723251
 20
1.8864114596
 11
12.2779403251
 21
1.8857004596
  0
LINE
  5
4A8
100
AcDbEntity
  8
0
100
AcDbLine
 62
2
  6
CONTINUOUS
 10
12.2002843251
 20
1.8770714596
 11
12.2024893251
 21
1.8763724596
  0
LWPOLYLINE
  5
4A9
100
AcDbEntity
  8
0
100
AcDbPolyline
 62
2
  6
CONTINUOUS
 90
2
 70
0
 43
0.0120000003
 10
8.5
 20
10.62
 10
8.5750002679
 20
10.7699994643
  0
LINE
  5
4AA
100
AcDbEntity
  8
0
100
AcDbLine
 62
2
  6
CONTINUOUS
 10
12.4003363251
 20
2.0312554596
 11
12.4025323251
 21
2.0306114596
  0
LINE
  5
4AB
100
AcDbEntity
  8
0
100
AcDbLine
 62
2
  6
CONTINUOUS
 10
12.3303523251
 20
2.0338444596
 11
12.3326393251
 21
2.0331544596
  0
LINE
  5
4AC
100
AcDbEntity
  8
0
100
AcDbLine
 62
2
  6
CONTINUOUS
 10
12.1821853251
 20
2.0263724596
 11
12.1845833251
 21
2.0256464596
  0
LINE
  5
4AD
100
AcDbEntity
  8
0
100
AcDbLine
 62
2
  6
CONTINUOUS
 10
12.3062663251
 20
1.9312894596
 11
12.3039693251
 21
1.9319984596
  0
LINE
  5
4AE
100
AcDbEntity
  8
0
100
AcDbLine
 62
2
  6
CONTINUOUS
 10
12.2449243251
 20
2.1225684596
 11
12.2426563251
 21
2.1232814596
  0
LINE
  5
4AF
100
AcDbEntity
  8
0
100
AcDbLine
 62
2
  6
CONTINUOUS
 10
12.3203113251
 20
2.1319104596
 11
12.3181053251
 21
2.1326094596
  0
LINE
  5
4B0
100
AcDbEntity
  8
0
100
AcDbLine
 62
2
  6
CONTINUOUS
 10
12.2594083251
 20
2.0663944596
 11
12.2615753251
 21
2.0657014596
  0
LINE
  5
4B1
100
AcDbEntity
  8
0
100
AcDbLine
 62
2
  6
CONTINUOUS
 10
12.2886153251
 20
1.9067024596
 11
12.2910683251
 21
1.9059094596
  0
LINE
  5
4B2
100
AcDbEntity
  8
0
100
AcDbLine
 62
2
  6
CONTINUOUS
 10
12.1741273251
 20
1.9066514596
 11
12.1763683251
 21
1.9059154596
  0
LINE
  5
4B3
100
AcDbEntity
  8
0
100
AcDbLine
 62
2
  6
CONTINUOUS
 10
12.3068213251
 20
1.9395624596
 11
12.3091153251
 21
1.9387914596
  0
LINE
  5
4B4
100
AcDbEntity
  8
0
100
AcDbLine
 62
2
  6
CONTINUOUS
 10
12.2434553251
 20
2.1085414596
 11
12.2412193251
 21
2.1092954596
  0
LINE
  5
4B5
100
AcDbEntity
  8
0
100
AcDbLine
 62
2
  6
CONTINUOUS
 10
12.1797613251
 20
2.0272074596
 11
12.1821853251
 21
2.0263724596
  0
LINE
  5
4B6
100
AcDbEntity
  8
0
100
AcDbLine
 62
2
  6
CONTINUOUS
 10
12.2004443251
 20
2.0075144596
 11
12.2027293251
 21
2.0067164596
  0
LINE
  5
4B7
100
AcDbEntity
  8
0
100
AcDbLine
 62
2
  6
CONTINUOUS
 10
12.3171113251
 20
2.0077074596
 11
12.3150473251
 21
2.0084394596
  0
LINE
  5
4B8
100
AcDbEntity
  8
0
100
AcDbLine
 62
2
  6
CONTINUOUS
 10
12.3368253251
 20
1.9986914596
 11
12.3347023251
 21
1.9994604596
  0
LINE
  5
4B9
100
AcDbEntity
  8
0
100
AcDbLine
 62
2
  6
CONTINUOUS
 10
12.3326393251
 20
2.0331544596
 11
12.3347023251
 21
2.0323884596
  0
LINE
  5
4BA
100
AcDbEntity
  8
0
100
AcDbLine
 62
2
  6
CONTINUOUS
 10
12.3310753251
 20
2.1077344596
 11
12.3332383251
 21
2.1069314596
  0
LINE
  5
4BB
100
AcDbEntity
  8
0
100
AcDbLine
 62
2
  6
CONTINUOUS
 10
12.1982243251
 20
1.8778434596
 11
12.2002843251
 21
1.8770714596
  0
LINE
  5
4BC
100
AcDbEntity
  8
0
100
AcDbLine
 62
2
  6
CONTINUOUS
 10
12.1720613251
 20
1.9074264596
 11
12.1741273251
 21
1.9066514596
  0
LINE
  5
4BD
100
AcDbEntity
  8
0
100
AcDbLine
 62
2
  6
CONTINUOUS
 10
12.3223703251
 20
2.1311384596
 11
12.3203113251
 21
2.1319104596
  0
LINE
  5
4BE
100
AcDbEntity
  8
0
100
AcDbLine
 62
2
  6
CONTINUOUS
 10
12.3349263251
 20
2.1259994596
 11
12.3328293251
 21
2.1267944596
  0
LINE
  5
4BF
100
AcDbEntity
  8
0
100
AcDbLine
 62
2
  6
CONTINUOUS
 10
12.1856703251
 20
1.8829814596
 11
12.1877663251
 21
1.8821854596
  0
LINE
  5
4C0
100
AcDbEntity
  8
0
100
AcDbLine
 62
2
  6
CONTINUOUS
 10
12.3371023251
 20
2.1251714596
 11
12.3349263251
 21
2.1259994596
  0
LINE
  5
4C1
100
AcDbEntity
  8
0
100
AcDbLine
 62
2
  6
CONTINUOUS
 10
12.1834923251
 20
1.8838114596
 11
12.1856703251
 21
1.8829814596
  0
LINE
  5
4C2
100
AcDbEntity
  8
0
100
AcDbLine
 62
2
  6
CONTINUOUS
 10
12.1877663251
 20
1.8821854596
 11
12.1897483251
 21
1.8814214596
  0
LINE
  5
4C3
100
AcDbEntity
  8
0
100
AcDbLine
 62
2
  6
CONTINUOUS
 10
12.3328293251
 20
2.1267944596
 11
12.3308503251
 21
2.1275604596
  0
LINE
  5
4C4
100
AcDbEntity
  8
0
100
AcDbLine
 62
2
  6
CONTINUOUS
 10
12.1812703251
 20
1.8846804596
 11
12.1834923251
 21
1.8838114596
  0
LINE
  5
4C5
100
AcDbEntity
  8
0
100
AcDbLine
 62
2
  6
CONTINUOUS
 10
12.3393243251
 20
2.1243004596
 11
12.3371023251
 21
2.1251714596
  0
LINE
  5
4C6
100
AcDbEntity
  8
0
100
AcDbLine
 62
2
  6
CONTINUOUS
 10
12.2863573251
 20
1.9076134596
 11
12.2886153251
 21
1.9067024596
  0
LINE
  5
4C7
100
AcDbEntity
  8
0
100
AcDbLine
 62
2
  6
CONTINUOUS
 10
12.1897483251
 20
1.8814214596
 11
12.1919343251
 21
1.8805314596
  0
LINE
  5
4C8
100
AcDbEntity
  8
0
100
AcDbLine
 62
2
  6
CONTINUOUS
 10
12.1790423251
 20
1.8855954596
 11
12.1812703251
 21
1.8846804596
  0
LINE
  5
4C9
100
AcDbEntity
  8
0
100
AcDbLine
 62
2
  6
CONTINUOUS
 10
12.1962123251
 20
1.8786824596
 11
12.1982243251
 21
1.8778434596
  0
LINE
  5
4CA
100
AcDbEntity
  8
0
100
AcDbLine
 62
2
  6
CONTINUOUS
 10
12.3347023251
 20
2.0323884596
 11
12.3368963251
 21
2.0314654596
  0
LINE
  5
4CB
100
AcDbEntity
  8
0
100
AcDbLine
 62
2
  6
CONTINUOUS
 10
12.1701543251
 20
1.9082294596
 11
12.1720613251
 21
1.9074264596
  0
LINE
  5
4CC
100
AcDbEntity
  8
0
100
AcDbLine
 62
2
  6
CONTINUOUS
 10
12.3039693251
 20
1.9319984596
 11
12.3018013251
 21
1.9329164596
  0
LINE
  5
4CD
100
AcDbEntity
  8
0
100
AcDbLine
 62
2
  6
CONTINUOUS
 10
12.1775903251
 20
2.0281284596
 11
12.1797613251
 21
2.0272074596
  0
LINE
  5
4CE
100
AcDbEntity
  8
0
100
AcDbLine
 62
2
  6
CONTINUOUS
 10
12.3150473251
 20
2.0084394596
 11
12.3130313251
 21
2.0093044596
  0
LINE
  5
4CF
100
AcDbEntity
  8
0
100
AcDbLine
 62
2
  6
CONTINUOUS
 10
12.1919343251
 20
1.8805314596
 11
12.1941483251
 21
1.8795804596
  0
LINE
  5
4D0
100
AcDbEntity
  8
0
100
AcDbLine
 62
2
  6
CONTINUOUS
 10
12.3047023251
 20
1.9404754596
 11
12.3068213251
 21
1.9395624596
  0
LINE
  5
4D1
100
AcDbEntity
  8
0
100
AcDbLine
 62
2
  6
CONTINUOUS
 10
12.1941483251
 20
1.8795804596
 11
12.1962123251
 21
1.8786824596
  0
LINE
  5
4D2
100
AcDbEntity
  8
0
100
AcDbLine
 62
2
  6
CONTINUOUS
 10
12.1768413251
 20
1.8865594596
 11
12.1790423251
 21
1.8855954596
  0
LINE
  5
4D3
100
AcDbEntity
  8
0
100
AcDbLine
 62
2
  6
CONTINUOUS
 10
12.2779403251
 20
1.8857004596
 11
12.2798813251
 21
1.8848114596
  0
LWPOLYLINE
  5
4D4
100
AcDbEntity
  8
0
100
AcDbPolyline
 62
2
  6
CONTINUOUS
 90
2
 70
0
 43
0.0120000003
 10
8.5
 20
0.38
 10
8.574999
 20
0.229998
  0
LINE
  5
4D5
100
AcDbEntity
  8
0
100
AcDbLine
 62
2
  6
CONTINUOUS
 10
12.3308503251
 20
2.1275604596
 11
12.3286623251
 21
2.1284484596
  0
LINE
  5
4D6
100
AcDbEntity
  8
0
100
AcDbLine
 62
2
  6
CONTINUOUS
 10
12.3415543251
 20
2.1233864596
 11
12.3393243251
 21
2.1243004596
  0
LINE
  5
4D7
100
AcDbEntity
  8
0
100
AcDbLine
 62
2
  6
CONTINUOUS
 10
12.3243843251
 20
2.1302994596
 11
12.3223703251
 21
2.1311384596
  0
LINE
  5
4D8
100
AcDbEntity
  8
0
100
AcDbLine
 62
2
  6
CONTINUOUS
 10
12.2456503251
 20
2.1076154596
 11
12.2434553251
 21
2.1085414596
  0
LINE
  5
4D9
100
AcDbEntity
  8
0
100
AcDbLine
 62
2
  6
CONTINUOUS
 10
12.3286623251
 20
2.1284484596
 11
12.3264473251
 21
2.1294014596
  0
LINE
  5
4DA
100
AcDbEntity
  8
0
100
AcDbLine
 62
2
  6
CONTINUOUS
 10
12.3264473251
 20
2.1294014596
 11
12.3243843251
 21
2.1302994596
  0
LINE
  5
4DB
100
AcDbEntity
  8
0
100
AcDbLine
 62
2
  6
CONTINUOUS
 10
12.3437553251
 20
2.1224224596
 11
12.3415543251
 21
2.1233864596
  0
LINE
  5
4DC
100
AcDbEntity
  8
0
100
AcDbLine
 62
2
  6
CONTINUOUS
 10
12.3389163251
 20
1.9977434596
 11
12.3368253251
 21
1.9986914596
  0
LINE
  5
4DD
100
AcDbEntity
  8
0
100
AcDbLine
 62
2
  6
CONTINUOUS
 10
12.2426563251
 20
2.1232814596
 11
12.2407143251
 21
2.1241684596
  0
LINE
  5
4DE
100
AcDbEntity
  8
0
100
AcDbLine
 62
2
  6
CONTINUOUS
 10
12.3266233251
 20
1.9738014596
 11
12.3286083251
 21
1.9728654596
  0
LINE
  5
4DF
100
AcDbEntity
  8
0
100
AcDbLine
 62
2
  6
CONTINUOUS
 10
12.1853253251
 20
1.9341404596
 11
12.1873793251
 21
1.9331624596
  0
LINE
  5
4E0
100
AcDbEntity
  8
0
100
AcDbLine
 62
2
  6
CONTINUOUS
 10
12.3458893251
 20
2.1214024596
 11
12.3437553251
 21
2.1224224596
  0
LINE
  5
4E1
100
AcDbEntity
  8
0
100
AcDbLine
 62
2
  6
CONTINUOUS
 10
12.1747063251
 20
1.8875804596
 11
12.1768413251
 21
1.8865594596
  0
LINE
  5
4E2
100
AcDbEntity
  8
0
100
AcDbLine
 62
2
  6
CONTINUOUS
 10
12.1180643251
 20
1.9783704596
 11
12.1160463251
 21
1.9793434596
  0
LINE
  5
4E3
100
AcDbEntity
  8
0
100
AcDbLine
 62
2
  6
CONTINUOUS
 10
12.4025323251
 20
2.0306114596
 11
12.4045503251
 21
2.0296384596
  0
LINE
  5
4E4
100
AcDbEntity
  8
0
100
AcDbLine
 62
2
  6
CONTINUOUS
 10
12.2842913251
 20
1.9086144596
 11
12.2863573251
 21
1.9076134596
  0
LINE
  5
4E5
100
AcDbEntity
  8
0
100
AcDbLine
 62
2
  6
CONTINUOUS
 10
12.1677483251
 20
1.9094084596
 11
12.1701543251
 21
1.9082294596
  0
LINE
  5
4E6
100
AcDbEntity
  8
0
100
AcDbLine
 62
2
  6
CONTINUOUS
 10
12.1982703251
 20
2.0085844596
 11
12.2004443251
 21
2.0075144596
  0
LINE
  5
4E7
100
AcDbEntity
  8
0
100
AcDbLine
 62
2
  6
CONTINUOUS
 10
12.3408943251
 20
1.9967334596
 11
12.3389163251
 21
1.9977434596
  0
LINE
  5
4E8
100
AcDbEntity
  8
0
100
AcDbLine
 62
2
  6
CONTINUOUS
 10
12.3368963251
 20
2.0314654596
 11
12.3389833251
 21
2.0303844596
  0
LINE
  5
4E9
100
AcDbEntity
  8
0
100
AcDbLine
 62
2
  6
CONTINUOUS
 10
12.1726393251
 20
1.8886754596
 11
12.1747063251
 21
1.8875804596
  0
LINE
  5
4EA
100
AcDbEntity
  8
0
100
AcDbLine
 62
2
  6
CONTINUOUS
 10
12.3479553251
 20
2.1203054596
 11
12.3458893251
 21
2.1214024596
  0
LINE
  5
4EB
100
AcDbEntity
  8
0
100
AcDbLine
 62
2
  6
CONTINUOUS
 10
12.3018013251
 20
1.9329164596
 11
12.2997813251
 21
1.9339944596
  0
LINE
  5
4EC
100
AcDbEntity
  8
0
100
AcDbLine
 62
2
  6
CONTINUOUS
 10
12.2477393251
 20
2.1064964596
 11
12.2456503251
 21
2.1076154596
  0
LINE
  5
4ED
100
AcDbEntity
  8
0
100
AcDbLine
 62
2
  6
CONTINUOUS
 10
12.3027513251
 20
1.9415304596
 11
12.3047023251
 21
1.9404754596
  0
LINE
  5
4EE
100
AcDbEntity
  8
0
100
AcDbLine
 62
2
  6
CONTINUOUS
 10
12.2615753251
 20
2.0657014596
 11
12.2636063251
 21
2.0646014596
  0
LINE
  5
4EF
100
AcDbEntity
  8
0
100
AcDbLine
 62
2
  6
CONTINUOUS
 10
12.1756813251
 20
2.0291734596
 11
12.1775903251
 21
2.0281284596
  0
LINE
  5
4F0
100
AcDbEntity
  8
0
100
AcDbLine
 62
2
  6
CONTINUOUS
 10
12.3428723251
 20
1.9956274596
 11
12.3408943251
 21
1.9967334596
  0
LINE
  5
4F1
100
AcDbEntity
  8
0
100
AcDbLine
 62
2
  6
CONTINUOUS
 10
12.2823863251
 20
1.9096854596
 11
12.2842913251
 21
1.9086144596
  0
LINE
  5
4F2
100
AcDbEntity
  8
0
100
AcDbLine
 62
2
  6
CONTINUOUS
 10
12.1962123251
 20
2.0097504596
 11
12.1982703251
 21
2.0085844596
  0
LINE
  5
4F3
100
AcDbEntity
  8
0
100
AcDbLine
 62
2
  6
CONTINUOUS
 10
12.1706593251
 20
1.8898364596
 11
12.1726393251
 21
1.8886754596
  0
LINE
  5
4F4
100
AcDbEntity
  8
0
100
AcDbLine
 62
2
  6
CONTINUOUS
 10
12.1658663251
 20
1.9105644596
 11
12.1677483251
 21
1.9094084596
  0
LINE
  5
4F5
100
AcDbEntity
  8
0
100
AcDbLine
 62
2
  6
CONTINUOUS
 10
12.3332383251
 20
2.1069314596
 11
12.3351663251
 21
2.1058284596
  0
LINE
  5
4F6
100
AcDbEntity
  8
0
100
AcDbLine
 62
2
  6
CONTINUOUS
 10
12.3499363251
 20
2.1191454596
 11
12.3479553251
 21
2.1203054596
  0
LINE
  5
4F7
100
AcDbEntity
  8
0
100
AcDbLine
 62
2
  6
CONTINUOUS
 10
12.1941563251
 20
2.0110074596
 11
12.1962123251
 21
2.0097504596
  0
LINE
  5
4F8
100
AcDbEntity
  8
0
100
AcDbLine
 62
2
  6
CONTINUOUS
 10
12.3448693251
 20
1.9943964596
 11
12.3428723251
 21
1.9956274596
  0
LINE
  5
4F9
100
AcDbEntity
  8
0
100
AcDbLine
 62
2
  6
CONTINUOUS
 10
12.2805993251
 20
1.9108124596
 11
12.2823863251
 21
1.9096854596
  0
LINE
  5
4FA
100
AcDbEntity
  8
0
100
AcDbLine
 62
2
  6
CONTINUOUS
 10
12.1687463251
 20
1.8910514596
 11
12.1706593251
 21
1.8898364596
  0
LINE
  5
4FB
100
AcDbEntity
  8
0
100
AcDbLine
 62
2
  6
CONTINUOUS
 10
12.1160463251
 20
1.9793434596
 11
12.1143063251
 21
1.9804494596
  0
LINE
  5
4FC
100
AcDbEntity
  8
0
100
AcDbLine
 62
2
  6
CONTINUOUS
 10
12.3518483251
 20
2.1179304596
 11
12.3499363251
 21
2.1191454596
  0
LINE
  5
4FD
100
AcDbEntity
  8
0
100
AcDbLine
 62
2
  6
CONTINUOUS
 10
12.4045503251
 20
2.0296384596
 11
12.4062893251
 21
2.0285324596
  0
LINE
  5
4FE
100
AcDbEntity
  8
0
100
AcDbLine
 62
2
  6
CONTINUOUS
 10
12.2997813251
 20
1.9339944596
 11
12.2976873251
 21
1.9353674596
  0
LINE
  5
4FF
100
AcDbEntity
  8
0
100
AcDbLine
 62
2
  6
CONTINUOUS
 10
12.3008073251
 20
1.9428424596
 11
12.3027513251
 21
1.9415304596
  0
LINE
  5
500
100
AcDbEntity
  8
0
100
AcDbLine
 62
2
  6
CONTINUOUS
 10
12.3537173251
 20
2.1166634596
 11
12.3518483251
 21
2.1179304596
  0
LINE
  5
501
100
AcDbEntity
  8
0
100
AcDbLine
 62
2
  6
CONTINUOUS
 10
12.1668793251
 20
1.8923184596
 11
12.1687463251
 21
1.8910514596
  0
LINE
  5
502
100
AcDbEntity
  8
0
100
AcDbLine
 62
2
  6
CONTINUOUS
 10
12.1840453251
 20
2.0821554596
 11
12.1822403251
 21
2.0833864596
  0
LINE
  5
503
100
AcDbEntity
  8
0
100
AcDbLine
 62
2
  6
CONTINUOUS
 10
12.3468473251
 20
1.9930374596
 11
12.3448693251
 21
1.9943964596
  0
LINE
  5
504
100
AcDbEntity
  8
0
100
AcDbLine
 62
2
  6
CONTINUOUS
 10
12.2787813251
 20
1.9120624596
 11
12.2805993251
 21
1.9108124596
  0
LINE
  5
505
100
AcDbEntity
  8
0
100
AcDbLine
 62
2
  6
CONTINUOUS
 10
12.3351663251
 20
2.1058284596
 11
12.3370273251
 21
2.1045134596
  0
LINE
  5
506
100
AcDbEntity
  8
0
100
AcDbLine
 62
2
  6
CONTINUOUS
 10
12.1650273251
 20
1.8936304596
 11
12.1668793251
 21
1.8923184596
  0
LINE
  5
507
100
AcDbEntity
  8
0
100
AcDbLine
 62
2
  6
CONTINUOUS
 10
12.3555693251
 20
2.1153514596
 11
12.3537173251
 21
2.1166634596
  0
LINE
  5
508
100
AcDbEntity
  8
0
100
AcDbLine
 62
2
  6
CONTINUOUS
 10
12.1143063251
 20
1.9804494596
 11
12.1121803251
 21
1.9819564596
  0
LINE
  5
509
100
AcDbEntity
  8
0
100
AcDbLine
 62
2
  6
CONTINUOUS
 10
12.3193563251
 20
2.0816724596
 11
12.3179963251
 21
2.0826364596
  0
LINE
  5
50A
100
AcDbEntity
  8
0
100
AcDbLine
 62
2
  6
CONTINUOUS
 10
12.1738983251
 20
2.0304394596
 11
12.1756813251
 21
2.0291734596
  0
LINE
  5
50B
100
AcDbEntity
  8
0
100
AcDbLine
 62
2
  6
CONTINUOUS
 10
12.4062893251
 20
2.0285324596
 11
12.4084143251
 21
2.0270234596
  0
LINE
  5
50C
100
AcDbEntity
  8
0
100
AcDbLine
 62
2
  6
CONTINUOUS
 10
12.2407143251
 20
2.1241684596
 11
12.2389553251
 21
2.1254284596
  0
LINE
  5
50D
100
AcDbEntity
  8
0
100
AcDbLine
 62
2
  6
CONTINUOUS
 10
12.2798813251
 20
1.8848114596
 11
12.2816383251
 21
1.8835524596
  0
LINE
  5
50E
100
AcDbEntity
  8
0
100
AcDbLine
 62
2
  6
CONTINUOUS
 10
12.1559403251
 20
1.9002234596
 11
12.1594003251
 21
1.8977354596
  0
LINE
  5
50F
100
AcDbEntity
  8
0
100
AcDbLine
 62
2
  6
CONTINUOUS
 10
12.2495453251
 20
2.1051884596
 11
12.2477393251
 21
2.1064964596
  0
LINE
  5
510
100
AcDbEntity
  8
0
100
AcDbLine
 62
2
  6
CONTINUOUS
 10
12.1594003251
 20
1.8977354596
 11
12.1612693251
 21
1.8963754596
  0
LINE
  5
511
100
AcDbEntity
  8
0
100
AcDbLine
 62
2
  6
CONTINUOUS
 10
12.1631673251
 20
1.8949844596
 11
12.1650273251
 21
1.8936304596
  0
LINE
  5
512
100
AcDbEntity
  8
0
100
AcDbLine
 62
2
  6
CONTINUOUS
 10
12.1541533251
 20
1.9015294596
 11
12.1559403251
 21
1.9002234596
  0
LINE
  5
513
100
AcDbEntity
  8
0
100
AcDbLine
 62
2
  6
CONTINUOUS
 10
12.1612693251
 20
1.8963754596
 11
12.1631673251
 21
1.8949844596
  0
LINE
  5
514
100
AcDbEntity
  8
0
100
AcDbLine
 62
2
  6
CONTINUOUS
 10
12.2769543251
 20
1.9134174596
 11
12.2787813251
 21
1.9120624596
  0
LINE
  5
515
100
AcDbEntity
  8
0
100
AcDbLine
 62
2
  6
CONTINUOUS
 10
12.1523353251
 20
1.9028914596
 11
12.1541533251
 21
1.9015294596
  0
LINE
  5
516
100
AcDbEntity
  8
0
100
AcDbLine
 62
2
  6
CONTINUOUS
 10
12.1642313251
 20
1.9118024596
 11
12.1658663251
 21
1.9105644596
  0
LINE
  5
517
100
AcDbEntity
  8
0
100
AcDbLine
 62
2
  6
CONTINUOUS
 10
12.1505023251
 20
1.9043204596
 11
12.1523353251
 21
1.9028914596
  0
LWPOLYLINE
  5
518
100
AcDbEntity
  8
0
100
AcDbPolyline
 62
2
  6
CONTINUOUS
 90
2
 70
0
 43
0.0120000003
 10
8.474999
 20
0.129998
 10
8.474999
 20
0.229998
  0
LWPOLYLINE
  5
519
100
AcDbEntity
  8
0
100
AcDbPolyline
 62
2
  6
CONTINUOUS
 90
2
 70
0
 43
0.0120000003
 10
8.4750002679
 20
10.7699994643
 10
8.4750002679
 20
10.8699984643
  0
LWPOLYLINE
  5
51A
100
AcDbEntity
  8
0
100
AcDbPolyline
 62
2
  6
CONTINUOUS
 90
2
 70
0
 43
0.0120000003
 10
8.525
 20
0.129998
 10
8.525
 20
0.229998
  0
LWPOLYLINE
  5
51B
100
AcDbEntity
  8
0
100
AcDbPolyline
 62
2
  6
CONTINUOUS
 90
2
 70
0
 43
0.0120000003
 10
8.5250002679
 20
10.8699984643
 10
8.5250002679
 20
10.7699994643
  0
LWPOLYLINE
  5
51C
100
AcDbEntity
  8
0
100
AcDbPolyline
 62
2
  6
CONTINUOUS
 90
2
 70
0
 43
0.0120000003
 10
16.629979
 20
5.474999
 10
16.529998
 20
5.474999
  0
LWPOLYLINE
  5
51D
100
AcDbEntity
  8
0
100
AcDbPolyline
 62
2
  6
CONTINUOUS
 90
2
 70
0
 43
0.0120000003
 10
0.369
 20
5.475
 10
0.47
 20
5.475
  0
LWPOLYLINE
  5
51E
100
AcDbEntity
  8
0
100
AcDbPolyline
 62
2
  6
CONTINUOUS
 90
2
 70
0
 43
0.0120000003
 10
0.37
 20
5.525
 10
0.47
 20
5.525
  0
LWPOLYLINE
  5
51F
100
AcDbEntity
  8
0
100
AcDbPolyline
 62
2
  6
CONTINUOUS
 90
2
 70
0
 43
0.0120000003
 10
16.529998
 20
5.524999
 10
16.629979
 20
5.524998
  0
LINE
  5
520
100
AcDbEntity
  8
0
100
AcDbLine
 62
2
  6
CONTINUOUS
 10
12.3629033251
 20
2.1100194596
 11
12.3611963251
 21
2.1112464596
  0
LINE
  5
521
100
AcDbEntity
  8
0
100
AcDbLine
 62
2
  6
CONTINUOUS
 10
12.3646543251
 20
2.1087574596
 11
12.3629033251
 21
2.1100194596
  0
LINE
  5
522
100
AcDbEntity
  8
0
100
AcDbLine
 62
2
  6
CONTINUOUS
 10
12.3611963251
 20
2.1112464596
 11
12.3593243251
 21
2.1126064596
  0
LINE
  5
523
100
AcDbEntity
  8
0
100
AcDbLine
 62
2
  6
CONTINUOUS
 10
12.3574283251
 20
2.1139964596
 11
12.3555693251
 21
2.1153514596
  0
LINE
  5
524
100
AcDbEntity
  8
0
100
AcDbLine
 62
2
  6
CONTINUOUS
 10
12.3664453251
 20
2.1074514596
 11
12.3646543251
 21
2.1087574596
  0
LINE
  5
525
100
AcDbEntity
  8
0
100
AcDbLine
 62
2
  6
CONTINUOUS
 10
12.3593243251
 20
2.1126064596
 11
12.3574283251
 21
2.1139964596
  0
LINE
  5
526
100
AcDbEntity
  8
0
100
AcDbLine
 62
2
  6
CONTINUOUS
 10
12.3682583251
 20
2.1060884596
 11
12.3664453251
 21
2.1074514596
  0
LINE
  5
527
100
AcDbEntity
  8
0
100
AcDbLine
 62
2
  6
CONTINUOUS
 10
12.3389833251
 20
2.0303844596
 11
12.3406463251
 21
2.0291054596
  0
LINE
  5
528
100
AcDbEntity
  8
0
100
AcDbLine
 62
2
  6
CONTINUOUS
 10
12.3486643251
 20
1.9916374596
 11
12.3468473251
 21
1.9930374596
  0
LINE
  5
529
100
AcDbEntity
  8
0
100
AcDbLine
 62
2
  6
CONTINUOUS
 10
12.2976873251
 20
1.9353674596
 11
12.2958693251
 21
1.9367824596
  0
LINE
  5
52A
100
AcDbEntity
  8
0
100
AcDbLine
 62
2
  6
CONTINUOUS
 10
12.3700913251
 20
2.1046604596
 11
12.3682583251
 21
2.1060884596
  0
LINE
  5
52B
100
AcDbEntity
  8
0
100
AcDbLine
 62
2
  6
CONTINUOUS
 10
12.3370273251
 20
2.1045134596
 11
12.3387923251
 21
2.1031364596
  0
LINE
  5
52C
100
AcDbEntity
  8
0
100
AcDbLine
 62
2
  6
CONTINUOUS
 10
12.2751823251
 20
1.9148414596
 11
12.2769543251
 21
1.9134174596
  0
LINE
  5
52D
100
AcDbEntity
  8
0
100
AcDbLine
 62
2
  6
CONTINUOUS
 10
12.3719343251
 20
2.1031544596
 11
12.3700913251
 21
2.1046604596
  0
LINE
  5
52E
100
AcDbEntity
  8
0
100
AcDbLine
 62
2
  6
CONTINUOUS
 10
12.1486603251
 20
1.9058264596
 11
12.1505023251
 21
1.9043204596
  0
LINE
  5
52F
100
AcDbEntity
  8
0
100
AcDbLine
 62
2
  6
CONTINUOUS
 10
12.3286083251
 20
1.9728654596
 11
12.3304493251
 21
1.9713384596
  0
LINE
  5
530
100
AcDbEntity
  8
0
100
AcDbLine
 62
2
  6
CONTINUOUS
 10
12.2990353251
 20
1.9443294596
 11
12.3008073251
 21
1.9428424596
  0
LINE
  5
531
100
AcDbEntity
  8
0
100
AcDbLine
 62
2
  6
CONTINUOUS
 10
12.2636063251
 20
2.0646014596
 11
12.2653703251
 21
2.0631094596
  0
LINE
  5
532
100
AcDbEntity
  8
0
100
AcDbLine
 62
2
  6
CONTINUOUS
 10
12.3504233251
 20
1.9901374596
 11
12.3486643251
 21
1.9916374596
  0
LINE
  5
533
100
AcDbEntity
  8
0
100
AcDbLine
 62
2
  6
CONTINUOUS
 10
12.3737783251
 20
2.1015604596
 11
12.3719343251
 21
2.1031544596
  0
LINE
  5
534
100
AcDbEntity
  8
0
100
AcDbLine
 62
2
  6
CONTINUOUS
 10
12.1626203251
 20
1.9131954596
 11
12.1642313251
 21
1.9118024596
  0
LINE
  5
535
100
AcDbEntity
  8
0
100
AcDbLine
 62
2
  6
CONTINUOUS
 10
12.1468173251
 20
1.9074214596
 11
12.1486603251
 21
1.9058264596
  0
LINE
  5
536
100
AcDbEntity
  8
0
100
AcDbLine
 62
2
  6
CONTINUOUS
 10
12.1924963251
 20
2.0124484596
 11
12.1941563251
 21
2.0110074596
  0
LINE
  5
537
100
AcDbEntity
  8
0
100
AcDbLine
 62
2
  6
CONTINUOUS
 10
12.2734503251
 20
1.9163544596
 11
12.2751823251
 21
1.9148414596
  0
LINE
  5
538
100
AcDbEntity
  8
0
100
AcDbLine
 62
2
  6
CONTINUOUS
 10
12.4084143251
 20
2.0270234596
 11
12.4102123251
 21
2.0254064596
  0
LINE
  5
539
100
AcDbEntity
  8
0
100
AcDbLine
 62
2
  6
CONTINUOUS
 10
12.1121803251
 20
1.9819564596
 11
12.1103833251
 21
1.9835734596
  0
LINE
  5
53A
100
AcDbEntity
  8
0
100
AcDbLine
 62
2
  6
CONTINUOUS
 10
12.1721963251
 20
2.0319944596
 11
12.1738983251
 21
2.0304394596
  0
LINE
  5
53B
100
AcDbEntity
  8
0
100
AcDbLine
 62
2
  6
CONTINUOUS
 10
12.1449843251
 20
1.9091134596
 11
12.1468173251
 21
1.9074214596
  0
LINE
  5
53C
100
AcDbEntity
  8
0
100
AcDbLine
 62
2
  6
CONTINUOUS
 10
12.1836583251
 20
1.9357184596
 11
12.1853253251
 21
1.9341404596
  0
LINE
  5
53D
100
AcDbEntity
  8
0
100
AcDbLine
 62
2
  6
CONTINUOUS
 10
12.2717413251
 20
1.9179774596
 11
12.2734503251
 21
1.9163544596
  0
LINE
  5
53E
100
AcDbEntity
  8
0
100
AcDbLine
 62
2
  6
CONTINUOUS
 10
12.1609703251
 20
1.9147664596
 11
12.1626203251
 21
1.9131954596
  0
LINE
  5
53F
100
AcDbEntity
  8
0
100
AcDbLine
 62
2
  6
CONTINUOUS
 10
12.1432693251
 20
1.9108124596
 11
12.1449843251
 21
1.9091134596
  0
LINE
  5
540
100
AcDbEntity
  8
0
100
AcDbLine
 62
2
  6
CONTINUOUS
 10
12.3756113251
 20
2.0998674596
 11
12.3737783251
 21
2.1015604596
  0
LINE
  5
541
100
AcDbEntity
  8
0
100
AcDbLine
 62
2
  6
CONTINUOUS
 10
12.3521073251
 20
1.9885514596
 11
12.3504233251
 21
1.9901374596
  0
LINE
  5
542
100
AcDbEntity
  8
0
100
AcDbLine
 62
2
  6
CONTINUOUS
 10
12.3387923251
 20
2.1031364596
 11
12.3405103251
 21
2.1015004596
  0
LINE
  5
543
100
AcDbEntity
  8
0
100
AcDbLine
 62
2
  6
CONTINUOUS
 10
12.3773263251
 20
2.0981684596
 11
12.3756113251
 21
2.0998674596
  0
LINE
  5
544
100
AcDbEntity
  8
0
100
AcDbLine
 62
2
  6
CONTINUOUS
 10
12.2701713251
 20
1.9195764596
 11
12.2717413251
 21
1.9179774596
  0
LINE
  5
545
100
AcDbEntity
  8
0
100
AcDbLine
 62
2
  6
CONTINUOUS
 10
12.2974233251
 20
1.9459884596
 11
12.2990353251
 21
1.9443294596
  0
LINE
  5
546
100
AcDbEntity
  8
0
100
AcDbLine
 62
2
  6
CONTINUOUS
 10
12.3537033251
 20
1.9868954596
 11
12.3521073251
 21
1.9885514596
  0
LINE
  5
547
100
AcDbEntity
  8
0
100
AcDbLine
 62
2
  6
CONTINUOUS
 10
12.1417193251
 20
1.9124524596
 11
12.1432693251
 21
1.9108124596
  0
LINE
  5
548
100
AcDbEntity
  8
0
100
AcDbLine
 62
2
  6
CONTINUOUS
 10
12.3788773251
 20
2.0965274596
 11
12.3773263251
 21
2.0981684596
  0
LINE
  5
549
100
AcDbEntity
  8
0
100
AcDbLine
 62
2
  6
CONTINUOUS
 10
12.1593673251
 20
1.9165044596
 11
12.1609703251
 21
1.9147664596
  0
LINE
  5
54A
100
AcDbEntity
  8
0
100
AcDbLine
 62
2
  6
CONTINUOUS
 10
12.2510523251
 20
2.1035434596
 11
12.2495453251
 21
2.1051884596
  0
LINE
  5
54B
100
AcDbEntity
  8
0
100
AcDbLine
 62
2
  6
CONTINUOUS
 10
12.2686433251
 20
1.9212494596
 11
12.2701713251
 21
1.9195764596
  0
LINE
  5
54C
100
AcDbEntity
  8
0
100
AcDbLine
 62
2
  6
CONTINUOUS
 10
12.1401893251
 20
1.9141634596
 11
12.1417193251
 21
1.9124524596
  0
LINE
  5
54D
100
AcDbEntity
  8
0
100
AcDbLine
 62
2
  6
CONTINUOUS
 10
12.3804063251
 20
2.0948164596
 11
12.3788773251
 21
2.0965274596
  0
LINE
  5
54E
100
AcDbEntity
  8
0
100
AcDbLine
 62
2
  6
CONTINUOUS
 10
12.3304493251
 20
1.9713384596
 11
12.3320213251
 21
1.9695534596
  0
LINE
  5
54F
100
AcDbEntity
  8
0
100
AcDbLine
 62
2
  6
CONTINUOUS
 10
12.3552293251
 20
1.9851504596
 11
12.3537033251
 21
1.9868954596
  0
LINE
  5
550
100
AcDbEntity
  8
0
100
AcDbLine
 62
2
  6
CONTINUOUS
 10
12.1706283251
 20
2.0337884596
 11
12.1721963251
 21
2.0319944596
  0
LINE
  5
551
100
AcDbEntity
  8
0
100
AcDbLine
 62
2
  6
CONTINUOUS
 10
12.2816383251
 20
1.8835524596
 11
12.2830763251
 21
1.8818854596
  0
LINE
  5
552
100
AcDbEntity
  8
0
100
AcDbLine
 62
2
  6
CONTINUOUS
 10
12.2389553251
 20
2.1254284596
 11
12.2375213251
 21
2.1270954596
  0
LINE
  5
553
100
AcDbEntity
  8
0
100
AcDbLine
 62
2
  6
CONTINUOUS
 10
12.1386843251
 20
1.9159324596
 11
12.1401893251
 21
1.9141634596
  0
LINE
  5
554
100
AcDbEntity
  8
0
100
AcDbLine
 62
2
  6
CONTINUOUS
 10
12.2671463251
 20
1.9230114596
 11
12.2686433251
 21
1.9212494596
  0
LINE
  5
555
100
AcDbEntity
  8
0
100
AcDbLine
 62
2
  6
CONTINUOUS
 10
12.3228863251
 20
1.9594014596
 11
12.3213133251
 21
1.9612554596
  0
LINE
  5
556
100
AcDbEntity
  8
0
100
AcDbLine
 62
2
  6
CONTINUOUS
 10
12.2944443251
 20
1.9384784596
 11
12.2958693251
 21
1.9367824596
  0
LINE
  5
557
100
AcDbEntity
  8
0
100
AcDbLine
 62
2
  6
CONTINUOUS
 10
12.1372043251
 20
1.9177484596
 11
12.1386843251
 21
1.9159324596
  0
LINE
  5
558
100
AcDbEntity
  8
0
100
AcDbLine
 62
2
  6
CONTINUOUS
 10
12.1357563251
 20
1.9195974596
 11
12.1372043251
 21
1.9177484596
  0
LINE
  5
559
100
AcDbEntity
  8
0
100
AcDbLine
 62
2
  6
CONTINUOUS
 10
12.3819113251
 20
2.0930484596
 11
12.3804063251
 21
2.0948164596
  0
LINE
  5
55A
100
AcDbEntity
  8
0
100
AcDbLine
 62
2
  6
CONTINUOUS
 10
12.3833893251
 20
2.0912334596
 11
12.3819113251
 21
2.0930484596
  0
LINE
  5
55B
100
AcDbEntity
  8
0
100
AcDbLine
 62
2
  6
CONTINUOUS
 10
12.2926193251
 20
1.9407224596
 11
12.2944443251
 21
1.9384784596
  0
LINE
  5
55C
100
AcDbEntity
  8
0
100
AcDbLine
 62
2
  6
CONTINUOUS
 10
12.1854983251
 20
2.0803614596
 11
12.1840453251
 21
2.0821554596
  0
LINE
  5
55D
100
AcDbEntity
  8
0
100
AcDbLine
 62
2
  6
CONTINUOUS
 10
12.2959113251
 20
1.9478814596
 11
12.2974233251
 21
1.9459884596
  0
LINE
  5
55E
100
AcDbEntity
  8
0
100
AcDbLine
 62
2
  6
CONTINUOUS
 10
12.2657003251
 20
1.9248524596
 11
12.2671463251
 21
1.9230114596
  0
LINE
  5
55F
100
AcDbEntity
  8
0
100
AcDbLine
 62
2
  6
CONTINUOUS
 10
12.3848393251
 20
2.0893824596
 11
12.3833893251
 21
2.0912334596
  0
LINE
  5
560
100
AcDbEntity
  8
0
100
AcDbLine
 62
2
  6
CONTINUOUS
 10
12.3243423251
 20
1.9575414596
 11
12.3228863251
 21
1.9594014596
  0
LINE
  5
561
100
AcDbEntity
  8
0
100
AcDbLine
 62
2
  6
CONTINUOUS
 10
12.3566453251
 20
1.9833404596
 11
12.3552293251
 21
1.9851504596
  0
LINE
  5
562
100
AcDbEntity
  8
0
100
AcDbLine
 62
2
  6
CONTINUOUS
 10
12.3406463251
 20
2.0291054596
 11
12.3420713251
 21
2.0272774596
  0
LINE
  5
563
100
AcDbEntity
  8
0
100
AcDbLine
 62
2
  6
CONTINUOUS
 10
12.1579143251
 20
1.9183704596
 11
12.1593673251
 21
1.9165044596
  0
LINE
  5
564
100
AcDbEntity
  8
0
100
AcDbLine
 62
2
  6
CONTINUOUS
 10
12.2907083251
 20
1.9432274596
 11
12.2926193251
 21
1.9407224596
  0
LINE
  5
565
100
AcDbEntity
  8
0
100
AcDbLine
 62
2
  6
CONTINUOUS
 10
12.1343373251
 20
1.9214704596
 11
12.1357563251
 21
1.9195974596
  0
LINE
  5
566
100
AcDbEntity
  8
0
100
AcDbLine
 62
2
  6
CONTINUOUS
 10
12.3862583251
 20
2.0875094596
 11
12.3848393251
 21
2.0893824596
  0
LINE
  5
567
100
AcDbEntity
  8
0
100
AcDbLine
 62
2
  6
CONTINUOUS
 10
12.1911403251
 20
2.0142474596
 11
12.1924963251
 21
2.0124484596
  0
LINE
  5
568
100
AcDbEntity
  8
0
100
AcDbLine
 62
2
  6
CONTINUOUS
 10
12.3405103251
 20
2.1015004596
 11
12.3419483251
 21
2.0995924596
  0
LINE
  5
569
100
AcDbEntity
  8
0
100
AcDbLine
 62
2
  6
CONTINUOUS
 10
12.4102123251
 20
2.0254064596
 11
12.4115443251
 21
2.0236114596
  0
LINE
  5
56A
100
AcDbEntity
  8
0
100
AcDbLine
 62
2
  6
CONTINUOUS
 10
12.1103833251
 20
1.9835734596
 11
12.1090523251
 21
1.9853704596
  0
LINE
  5
56B
100
AcDbEntity
  8
0
100
AcDbLine
 62
2
  6
CONTINUOUS
 10
12.1692343251
 20
2.0356744596
 11
12.1706283251
 21
2.0337884596
  0
LINE
  5
56C
100
AcDbEntity
  8
0
100
AcDbLine
 62
2
  6
CONTINUOUS
 10
12.3876413251
 20
2.0856264596
 11
12.3862583251
 21
2.0875094596
  0
LINE
  5
56D
100
AcDbEntity
  8
0
100
AcDbLine
 62
2
  6
CONTINUOUS
 10
12.1329553251
 20
1.9233544596
 11
12.1343373251
 21
1.9214704596
  0
LINE
  5
56E
100
AcDbEntity
  8
0
100
AcDbLine
 62
2
  6
CONTINUOUS
 10
12.2643213251
 20
1.9267624596
 11
12.2657003251
 21
1.9248524596
  0
LINE
  5
56F
100
AcDbEntity
  8
0
100
AcDbLine
 62
2
  6
CONTINUOUS
 10
12.3889863251
 20
2.0837434596
 11
12.3876413251
 21
2.0856264596
  0
LINE
  5
570
100
AcDbEntity
  8
0
100
AcDbLine
 62
2
  6
CONTINUOUS
 10
12.1316103251
 20
1.9252384596
 11
12.1329553251
 21
1.9233544596
  0
LINE
  5
571
100
AcDbEntity
  8
0
100
AcDbLine
 62
2
  6
CONTINUOUS
 10
12.1303013251
 20
1.9271094596
 11
12.1316103251
 21
1.9252384596
  0
LINE
  5
572
100
AcDbEntity
  8
0
100
AcDbLine
 62
2
  6
CONTINUOUS
 10
12.2889813251
 20
1.9457004596
 11
12.2907083251
 21
1.9432274596
  0
LINE
  5
573
100
AcDbEntity
  8
0
100
AcDbLine
 62
2
  6
CONTINUOUS
 10
12.3902923251
 20
2.0818724596
 11
12.3889863251
 21
2.0837434596
  0
LINE
  5
574
100
AcDbEntity
  8
0
100
AcDbLine
 62
2
  6
CONTINUOUS
 10
12.3579513251
 20
1.9814514596
 11
12.3566453251
 21
1.9833404596
  0
LINE
  5
575
100
AcDbEntity
  8
0
100
AcDbLine
 62
2
  6
CONTINUOUS
 10
12.3213133251
 20
1.9612554596
 11
12.3200833251
 21
1.9630484596
  0
LINE
  5
576
100
AcDbEntity
  8
0
100
AcDbLine
 62
2
  6
CONTINUOUS
 10
12.1290203251
 20
1.9289824596
 11
12.1303013251
 21
1.9271094596
  0
LINE
  5
577
100
AcDbEntity
  8
0
100
AcDbLine
 62
2
  6
CONTINUOUS
 10
12.2945913251
 20
1.9498284596
 11
12.2959113251
 21
1.9478814596
  0
LINE
  5
578
100
AcDbEntity
  8
0
100
AcDbLine
 62
2
  6
CONTINUOUS
 10
12.1276883251
 20
1.9309664596
 11
12.1290203251
 21
1.9289824596
  0
LINE
  5
579
100
AcDbEntity
  8
0
100
AcDbLine
 62
2
  6
CONTINUOUS
 10
12.2375213251
 20
2.1270954596
 11
12.2361943251
 21
2.1290754596
  0
LINE
  5
57A
100
AcDbEntity
  8
0
100
AcDbLine
 62
2
  6
CONTINUOUS
 10
12.2830763251
 20
1.8818854596
 11
12.2844003251
 21
1.8799064596
  0
LINE
  5
57B
100
AcDbEntity
  8
0
100
AcDbLine
 62
2
  6
CONTINUOUS
 10
12.1264033251
 20
1.9329204596
 11
12.1276883251
 21
1.9309664596
  0
LINE
  5
57C
100
AcDbEntity
  8
0
100
AcDbLine
 62
2
  6
CONTINUOUS
 10
12.2630813251
 20
1.9286484596
 11
12.2643213251
 21
1.9267624596
  0
LINE
  5
57D
100
AcDbEntity
  8
0
100
AcDbLine
 62
2
  6
CONTINUOUS
 10
12.2878263251
 20
1.9474654596
 11
12.2889813251
 21
1.9457004596
  0
LINE
  5
57E
100
AcDbEntity
  8
0
100
AcDbLine
 62
2
  6
CONTINUOUS
 10
12.1679703251
 20
2.0376254596
 11
12.1692343251
 21
2.0356744596
  0
LINE
  5
57F
100
AcDbEntity
  8
0
100
AcDbLine
 62
2
  6
CONTINUOUS
 10
12.1251593251
 20
1.9348584596
 11
12.1264033251
 21
1.9329204596
  0
LINE
  5
580
100
AcDbEntity
  8
0
100
AcDbLine
 62
2
  6
CONTINUOUS
 10
12.1239543251
 20
1.9367884596
 11
12.1251593251
 21
1.9348584596
  0
LINE
  5
581
100
AcDbEntity
  8
0
100
AcDbLine
 62
2
  6
CONTINUOUS
 10
12.1567163251
 20
1.9202994596
 11
12.1579143251
 21
1.9183704596
  0
LINE
  5
582
100
AcDbEntity
  8
0
100
AcDbLine
 62
2
  6
CONTINUOUS
 10
12.1227813251
 20
1.9387234596
 11
12.1239543251
 21
1.9367884596
  0
LINE
  5
583
100
AcDbEntity
  8
0
100
AcDbLine
 62
2
  6
CONTINUOUS
 10
12.3915743251
 20
2.0799994596
 11
12.3902923251
 21
2.0818724596
  0
LINE
  5
584
100
AcDbEntity
  8
0
100
AcDbLine
 62
2
  6
CONTINUOUS
 10
12.3929073251
 20
2.0780154596
 11
12.3915743251
 21
2.0799994596
  0
LINE
  5
585
100
AcDbEntity
  8
0
100
AcDbLine
 62
2
  6
CONTINUOUS
 10
12.3941933251
 20
2.0760594596
 11
12.3929073251
 21
2.0780154596
  0
LINE
  5
586
100
AcDbEntity
  8
0
100
AcDbLine
 62
2
  6
CONTINUOUS
 10
12.3320213251
 20
1.9695534596
 11
12.3333233251
 21
1.9675574596
  0
LINE
  5
587
100
AcDbEntity
  8
0
100
AcDbLine
 62
2
  6
CONTINUOUS
 10
12.3101723251
 20
2.0355694596
 11
12.3117113251
 21
2.0332064596
  0
LINE
  5
588
100
AcDbEntity
  8
0
100
AcDbLine
 62
2
  6
CONTINUOUS
 10
12.3954343251
 20
2.0741234596
 11
12.3941933251
 21
2.0760594596
  0
LINE
  5
589
100
AcDbEntity
  8
0
100
AcDbLine
 62
2
  6
CONTINUOUS
 10
12.3966403251
 20
2.0721924596
 11
12.3954343251
 21
2.0741234596
  0
LINE
  5
58A
100
AcDbEntity
  8
0
100
AcDbLine
 62
2
  6
CONTINUOUS
 10
12.1898343251
 20
2.0163514596
 11
12.1911403251
 21
2.0142474596
  0
LINE
  5
58B
100
AcDbEntity
  8
0
100
AcDbLine
 62
2
  6
CONTINUOUS
 10
12.3255623251
 20
1.9555564596
 11
12.3243423251
 21
1.9575414596
  0
LINE
  5
58C
100
AcDbEntity
  8
0
100
AcDbLine
 62
2
  6
CONTINUOUS
 10
12.3978153251
 20
2.0702584596
 11
12.3966403251
 21
2.0721924596
  0
LINE
  5
58D
100
AcDbEntity
  8
0
100
AcDbLine
 62
2
  6
CONTINUOUS
 10
12.2844003251
 20
1.8799064596
 11
12.2855423251
 21
1.8780114596
  0
LINE
  5
58E
100
AcDbEntity
  8
0
100
AcDbLine
 62
2
  6
CONTINUOUS
 10
12.2361943251
 20
2.1290754596
 11
12.2350533251
 21
2.1309704596
  0
LINE
  5
58F
100
AcDbEntity
  8
0
100
AcDbLine
 62
2
  6
CONTINUOUS
 10
12.3591413251
 20
1.9794704596
 11
12.3579513251
 21
1.9814514596
  0
LINE
  5
590
100
AcDbEntity
  8
0
100
AcDbLine
 62
2
  6
CONTINUOUS
 10
12.2619623251
 20
1.9305264596
 11
12.2630813251
 21
1.9286484596
  0
LINE
  5
591
100
AcDbEntity
  8
0
100
AcDbLine
 62
2
  6
CONTINUOUS
 10
12.1216343251
 20
1.9406724596
 11
12.1227813251
 21
1.9387234596
  0
LINE
  5
592
100
AcDbEntity
  8
0
100
AcDbLine
 62
2
  6
CONTINUOUS
 10
12.3989613251
 20
2.0683094596
 11
12.3978153251
 21
2.0702584596
  0
LINE
  5
593
100
AcDbEntity
  8
0
100
AcDbLine
 62
2
  6
CONTINUOUS
 10
12.2521833251
 20
2.1016174596
 11
12.2510523251
 21
2.1035434596
  0
LINE
  5
594
100
AcDbEntity
  8
0
100
AcDbLine
 62
2
  6
CONTINUOUS
 10
12.3855203251
 20
1.9914024596
 11
12.3844213251
 21
1.9932884596
  0
LINE
  5
595
100
AcDbEntity
  8
0
100
AcDbLine
 62
2
  6
CONTINUOUS
 10
12.1350763251
 20
2.0175794596
 11
12.1361743251
 21
2.0156934596
  0
LINE
  5
596
100
AcDbEntity
  8
0
100
AcDbLine
 62
2
  6
CONTINUOUS
 10
12.2934623251
 20
1.9517784596
 11
12.2945913251
 21
1.9498284596
  0
LINE
  5
597
100
AcDbEntity
  8
0
100
AcDbLine
 62
2
  6
CONTINUOUS
 10
12.2653703251
 20
2.0631094596
 11
12.2665193251
 21
2.0611124596
  0
LINE
  5
598
100
AcDbEntity
  8
0
100
AcDbLine
 62
2
  6
CONTINUOUS
 10
12.3844213251
 20
1.9932884596
 11
12.3832903251
 21
1.9952574596
  0
LINE
  5
599
100
AcDbEntity
  8
0
100
AcDbLine
 62
2
  6
CONTINUOUS
 10
12.1361743251
 20
2.0156934596
 11
12.1373033251
 21
2.0137244596
  0
LINE
  5
59A
100
AcDbEntity
  8
0
100
AcDbLine
 62
2
  6
CONTINUOUS
 10
12.1205093251
 20
1.9426464596
 11
12.1216343251
 21
1.9406724596
  0
LINE
  5
59B
100
AcDbEntity
  8
0
100
AcDbLine
 62
2
  6
CONTINUOUS
 10
12.4000843251
 20
2.0663344596
 11
12.3989613251
 21
2.0683094596
  0
LINE
  5
59C
100
AcDbEntity
  8
0
100
AcDbLine
 62
2
  6
CONTINUOUS
 10
12.1339273251
 20
2.0196074596
 11
12.1350763251
 21
2.0175794596
  0
LINE
  5
59D
100
AcDbEntity
  8
0
100
AcDbLine
 62
2
  6
CONTINUOUS
 10
12.3866683251
 20
1.9893744596
 11
12.3855203251
 21
1.9914024596
  0
LINE
  5
59E
100
AcDbEntity
  8
0
100
AcDbLine
 62
2
  6
CONTINUOUS
 10
12.1668203251
 20
2.0396724596
 11
12.1679703251
 21
2.0376254596
  0
LINE
  5
59F
100
AcDbEntity
  8
0
100
AcDbLine
 62
2
  6
CONTINUOUS
 10
12.4011953251
 20
2.0643244596
 11
12.4000843251
 21
2.0663344596
  0
LINE
  5
5A0
100
AcDbEntity
  8
0
100
AcDbLine
 62
2
  6
CONTINUOUS
 10
12.1887163251
 20
2.0183764596
 11
12.1898343251
 21
2.0163514596
  0
LINE
  5
5A1
100
AcDbEntity
  8
0
100
AcDbLine
 62
2
  6
CONTINUOUS
 10
12.1194033251
 20
1.9446574596
 11
12.1205093251
 21
1.9426464596
  0
LINE
  5
5A2
100
AcDbEntity
  8
0
100
AcDbLine
 62
2
  6
CONTINUOUS
 10
12.1373033251
 20
2.0137244596
 11
12.1384463251
 21
2.0116344596
  0
LINE
  5
5A3
100
AcDbEntity
  8
0
100
AcDbLine
 62
2
  6
CONTINUOUS
 10
12.3832903251
 20
1.9952574596
 11
12.3821483251
 21
1.9973464596
  0
LINE
  5
5A4
100
AcDbEntity
  8
0
100
AcDbLine
 62
2
  6
CONTINUOUS
 10
12.2609033251
 20
1.9324804596
 11
12.2619623251
 21
1.9305264596
  0
LINE
  5
5A5
100
AcDbEntity
  8
0
100
AcDbLine
 62
2
  6
CONTINUOUS
 10
12.1183063251
 20
1.9467144596
 11
12.1194033251
 21
1.9446574596
  0
LINE
  5
5A6
100
AcDbEntity
  8
0
100
AcDbLine
 62
2
  6
CONTINUOUS
 10
12.4022913251
 20
2.0622664596
 11
12.4011953251
 21
2.0643244596
  0
LINE
  5
5A7
100
AcDbEntity
  8
0
100
AcDbLine
 62
2
  6
CONTINUOUS
 10
12.2868283251
 20
1.9493494596
 11
12.2878263251
 21
1.9474654596
  0
LINE
  5
5A8
100
AcDbEntity
  8
0
100
AcDbLine
 62
2
  6
CONTINUOUS
 10
12.1865513251
 20
2.0783574596
 11
12.1854983251
 21
2.0803614596
  0
LINE
  5
5A9
100
AcDbEntity
  8
0
100
AcDbLine
 62
2
  6
CONTINUOUS
 10
12.3602253251
 20
1.9773834596
 11
12.3591413251
 21
1.9794704596
  0
LINE
  5
5AA
100
AcDbEntity
  8
0
100
AcDbLine
 62
2
  6
CONTINUOUS
 10
12.1173753251
 20
1.9485194596
 11
12.1183063251
 21
1.9467144596
  0
LINE
  5
5AB
100
AcDbEntity
  8
0
100
AcDbLine
 62
2
  6
CONTINUOUS
 10
12.1329323251
 20
2.0215544596
 11
12.1339273251
 21
2.0196074596
  0
LINE
  5
5AC
100
AcDbEntity
  8
0
100
AcDbLine
 62
2
  6
CONTINUOUS
 10
12.1384463251
 20
2.0116344596
 11
12.1395293251
 21
2.0094884596
  0
LINE
  5
5AD
100
AcDbEntity
  8
0
100
AcDbLine
 62
2
  6
CONTINUOUS
 10
12.2855423251
 20
1.8780114596
 11
12.2866143251
 21
1.8758864596
  0
LINE
  5
5AE
100
AcDbEntity
  8
0
100
AcDbLine
 62
2
  6
CONTINUOUS
 10
12.2350533251
 20
2.1309704596
 11
12.2339833251
 21
2.1330954596
  0
LINE
  5
5AF
100
AcDbEntity
  8
0
100
AcDbLine
 62
2
  6
CONTINUOUS
 10
12.1164963251
 20
1.9502824596
 11
12.1173753251
 21
1.9485194596
  0
LINE
  5
5B0
100
AcDbEntity
  8
0
100
AcDbLine
 62
2
  6
CONTINUOUS
 10
12.2598983251
 20
1.9345334596
 11
12.2609033251
 21
1.9324804596
  0
LINE
  5
5B1
100
AcDbEntity
  8
0
100
AcDbLine
 62
2
  6
CONTINUOUS
 10
12.1557303251
 20
1.9223374596
 11
12.1567163251
 21
1.9202994596
  0
LINE
  5
5B2
100
AcDbEntity
  8
0
100
AcDbLine
 62
2
  6
CONTINUOUS
 10
12.1156243251
 20
1.9521024596
 11
12.1164963251
 21
1.9502824596
  0
LINE
  5
5B3
100
AcDbEntity
  8
0
100
AcDbLine
 62
2
  6
CONTINUOUS
 10
12.1090523251
 20
1.9853704596
 11
12.1079613251
 21
1.9876784596
  0
LINE
  5
5B4
100
AcDbEntity
  8
0
100
AcDbLine
 62
2
  6
CONTINUOUS
 10
12.1147663251
 20
1.9539924596
 11
12.1156243251
 21
1.9521024596
  0
LWPOLYLINE
  5
5B5
100
AcDbEntity
  8
0
100
AcDbPolyline
 62
2
  6
CONTINUOUS
 90
2
 70
0
 43
0.0120000003
 10
8.42501
 20
0.229998
 10
8.5
 20
0.38
  0
LINE
  5
5B6
100
AcDbEntity
  8
0
100
AcDbLine
 62
2
  6
CONTINUOUS
 10
12.4032203251
 20
2.0604624596
 11
12.4022913251
 21
2.0622664596
  0
LINE
  5
5B7
100
AcDbEntity
  8
0
100
AcDbLine
 62
2
  6
CONTINUOUS
 10
12.3876643251
 20
1.9874274596
 11
12.3866683251
 21
1.9893744596
  0
LINE
  5
5B8
100
AcDbEntity
  8
0
100
AcDbLine
 62
2
  6
CONTINUOUS
 10
12.3821483251
 20
1.9973464596
 11
12.3810643251
 21
1.9994934596
  0
LWPOLYLINE
  5
5B9
100
AcDbEntity
  8
0
100
AcDbPolyline
 62
2
  6
CONTINUOUS
 90
2
 70
0
 43
0.0120000003
 10
8.5
 20
10.62
 10
8.4250002679
 20
10.7699994643
  0
LINE
  5
5BA
100
AcDbEntity
  8
0
100
AcDbLine
 62
2
  6
CONTINUOUS
 10
12.4040993251
 20
2.0586994596
 11
12.4032203251
 21
2.0604624596
  0
LINE
  5
5BB
100
AcDbEntity
  8
0
100
AcDbLine
 62
2
  6
CONTINUOUS
 10
12.3419483251
 20
2.0995924596
 11
12.3429673251
 21
2.0975234596
  0
LINE
  5
5BC
100
AcDbEntity
  8
0
100
AcDbLine
 62
2
  6
CONTINUOUS
 10
12.4049693251
 20
2.0568774596
 11
12.4040993251
 21
2.0586994596
  0
LINE
  5
5BD
100
AcDbEntity
  8
0
100
AcDbLine
 62
2
  6
CONTINUOUS
 10
12.2924133251
 20
1.9539884596
 11
12.2934623251
 21
1.9517784596
  0
LINE
  5
5BE
100
AcDbEntity
  8
0
100
AcDbLine
 62
2
  6
CONTINUOUS
 10
12.4115443251
 20
2.0236114596
 11
12.4126353251
 21
2.0213024596
  0
LINE
  5
5BF
100
AcDbEntity
  8
0
100
AcDbLine
 62
2
  6
CONTINUOUS
 10
12.1658723251
 20
2.0417344596
 11
12.1668203251
 21
2.0396724596
  0
LINE
  5
5C0
100
AcDbEntity
  8
0
100
AcDbLine
 62
2
  6
CONTINUOUS
 10
12.3333233251
 20
1.9675574596
 11
12.3342753251
 21
1.9654624596
  0
LINE
  5
5C1
100
AcDbEntity
  8
0
100
AcDbLine
 62
2
  6
CONTINUOUS
 10
12.4058273251
 20
2.0549894596
 11
12.4049693251
 21
2.0568774596
  0
LINE
  5
5C2
100
AcDbEntity
  8
0
100
AcDbLine
 62
2
  6
CONTINUOUS
 10
12.3611753251
 20
1.9752504596
 11
12.3602253251
 21
1.9773834596
  0
LINE
  5
5C3
100
AcDbEntity
  8
0
100
AcDbLine
 62
2
  6
CONTINUOUS
 10
12.2589353251
 20
1.9367004596
 11
12.2598983251
 21
1.9345334596
  0
LINE
  5
5C4
100
AcDbEntity
  8
0
100
AcDbLine
 62
2
  6
CONTINUOUS
 10
12.1395293251
 20
2.0094884596
 11
12.1405083251
 21
2.0072724596
  0
LINE
  5
5C5
100
AcDbEntity
  8
0
100
AcDbLine
 62
2
  6
CONTINUOUS
 10
12.3810643251
 20
1.9994934596
 11
12.3800863251
 21
2.0017084596
  0
LINE
  5
5C6
100
AcDbEntity
  8
0
100
AcDbLine
 62
2
  6
CONTINUOUS
 10
12.1877473251
 20
2.0205824596
 11
12.1887163251
 21
2.0183764596
  0
LINE
  5
5C7
100
AcDbEntity
  8
0
100
AcDbLine
 62
2
  6
CONTINUOUS
 10
12.1320083251
 20
2.0236764596
 11
12.1329323251
 21
2.0215544596
  0
LINE
  5
5C8
100
AcDbEntity
  8
0
100
AcDbLine
 62
2
  6
CONTINUOUS
 10
12.3885873251
 20
1.9853054596
 11
12.3876643251
 21
1.9874274596
  0
LINE
  5
5C9
100
AcDbEntity
  8
0
100
AcDbLine
 62
2
  6
CONTINUOUS
 10
12.1827423251
 20
1.9378404596
 11
12.1836583251
 21
1.9357184596
  0
LINE
  5
5CA
100
AcDbEntity
  8
0
100
AcDbLine
 62
2
  6
CONTINUOUS
 10
12.1139213251
 20
1.9559574596
 11
12.1147663251
 21
1.9539924596
  0
LINE
  5
5CB
100
AcDbEntity
  8
0
100
AcDbLine
 62
2
  6
CONTINUOUS
 10
12.4066723251
 20
2.0530244596
 11
12.4058273251
 21
2.0549894596
  0
LINE
  5
5CC
100
AcDbEntity
  8
0
100
AcDbLine
 62
2
  6
CONTINUOUS
 10
12.3420713251
 20
2.0272774596
 11
12.3429773251
 21
2.0251354596
  0
LINE
  5
5CD
100
AcDbEntity
  8
0
100
AcDbLine
 62
2
  6
CONTINUOUS
 10
12.2859163251
 20
1.9515074596
 11
12.2868283251
 21
1.9493494596
  0
LINE
  5
5CE
100
AcDbEntity
  8
0
100
AcDbLine
 62
2
  6
CONTINUOUS
 10
12.2580023251
 20
1.9390044596
 11
12.2589353251
 21
1.9367004596
  0
LINE
  5
5CF
100
AcDbEntity
  8
0
100
AcDbLine
 62
2
  6
CONTINUOUS
 10
12.2531003251
 20
2.0993504596
 11
12.2521833251
 21
2.1016174596
  0
LINE
  5
5D0
100
AcDbEntity
  8
0
100
AcDbLine
 62
2
  6
CONTINUOUS
 10
12.4075003251
 20
2.0509704596
 11
12.4066723251
 21
2.0530244596
  0
LINE
  5
5D1
100
AcDbEntity
  8
0
100
AcDbLine
 62
2
  6
CONTINUOUS
 10
12.1130953251
 20
1.9580104596
 11
12.1139213251
 21
1.9559574596
  0
LINE
  5
5D2
100
AcDbEntity
  8
0
100
AcDbLine
 62
2
  6
CONTINUOUS
 10
12.1549063251
 20
1.9245004596
 11
12.1557303251
 21
1.9223374596
  0
LINE
  5
5D3
100
AcDbEntity
  8
0
100
AcDbLine
 62
2
  6
CONTINUOUS
 10
12.3619833251
 20
1.9731174596
 11
12.3611753251
 21
1.9752504596
  0
LINE
  5
5D4
100
AcDbEntity
  8
0
100
AcDbLine
 62
2
  6
CONTINUOUS
 10
12.2916503251
 20
1.9560074596
 11
12.2924133251
 21
1.9539884596
  0
LINE
  5
5D5
100
AcDbEntity
  8
0
100
AcDbLine
 62
2
  6
CONTINUOUS
 10
12.1122883251
 20
1.9601614596
 11
12.1130953251
 21
1.9580104596
  0
LINE
  5
5D6
100
AcDbEntity
  8
0
100
AcDbLine
 62
2
  6
CONTINUOUS
 10
12.4083073251
 20
2.0488194596
 11
12.4075003251
 21
2.0509704596
  0
LINE
  5
5D7
100
AcDbEntity
  8
0
100
AcDbLine
 62
2
  6
CONTINUOUS
 10
12.2572373251
 20
1.9410504596
 11
12.2580023251
 21
1.9390044596
  0
LINE
  5
5D8
100
AcDbEntity
  8
0
100
AcDbLine
 62
2
  6
CONTINUOUS
 10
12.1312763251
 20
2.0256544596
 11
12.1320083251
 21
2.0236764596
  0
LINE
  5
5D9
100
AcDbEntity
  8
0
100
AcDbLine
 62
2
  6
CONTINUOUS
 10
12.3893173251
 20
1.9833254596
 11
12.3885873251
 21
1.9853054596
  0
LINE
  5
5DA
100
AcDbEntity
  8
0
100
AcDbLine
 62
2
  6
CONTINUOUS
 10
12.1405083251
 20
2.0072724596
 11
12.1413393251
 21
2.0049944596
  0
LINE
  5
5DB
100
AcDbEntity
  8
0
100
AcDbLine
 62
2
  6
CONTINUOUS
 10
12.3800863251
 20
2.0017084596
 11
12.3792563251
 21
2.0039864596
  0
LINE
  5
5DC
100
AcDbEntity
  8
0
100
AcDbLine
 62
2
  6
CONTINUOUS
 10
12.3342753251
 20
1.9654624596
 11
12.3350653251
 21
1.9632824596
  0
LINE
  5
5DD
100
AcDbEntity
  8
0
100
AcDbLine
 62
2
  6
CONTINUOUS
 10
12.1651203251
 20
2.0438234596
 11
12.1658723251
 21
2.0417344596
  0
LINE
  5
5DE
100
AcDbEntity
  8
0
100
AcDbLine
 62
2
  6
CONTINUOUS
 10
12.2339833251
 20
2.1330954596
 11
12.2331723251
 21
2.1353624596
  0
LINE
  5
5DF
100
AcDbEntity
  8
0
100
AcDbLine
 62
2
  6
CONTINUOUS
 10
12.2866143251
 20
1.8758864596
 11
12.2874233251
 21
1.8736194596
  0
LINE
  5
5E0
100
AcDbEntity
  8
0
100
AcDbLine
 62
2
  6
CONTINUOUS
 10
12.1079613251
 20
1.9876784596
 11
12.1072283251
 21
1.9897654596
  0
LINE
  5
5E1
100
AcDbEntity
  8
0
100
AcDbLine
 62
2
  6
CONTINUOUS
 10
12.1115033251
 20
1.9624204596
 11
12.1122883251
 21
1.9601614596
  0
LINE
  5
5E2
100
AcDbEntity
  8
0
100
AcDbLine
 62
2
  6
CONTINUOUS
 10
12.2565283251
 20
1.9431154596
 11
12.2572373251
 21
1.9410504596
  0
LINE
  5
5E3
100
AcDbEntity
  8
0
100
AcDbLine
 62
2
  6
CONTINUOUS
 10
12.1107453251
 20
1.9647974596
 11
12.1115033251
 21
1.9624204596
  0
LINE
  5
5E4
100
AcDbEntity
  8
0
100
AcDbLine
 62
2
  6
CONTINUOUS
 10
12.1306163251
 20
2.0277404596
 11
12.1312763251
 21
2.0256544596
  0
LINE
  5
5E5
100
AcDbEntity
  8
0
100
AcDbLine
 62
2
  6
CONTINUOUS
 10
12.4126353251
 20
2.0213024596
 11
12.4133673251
 21
2.0192164596
  0
LINE
  5
5E6
100
AcDbEntity
  8
0
100
AcDbLine
 62
2
  6
CONTINUOUS
 10
12.4090913251
 20
2.0465604596
 11
12.4083073251
 21
2.0488194596
  0
LINE
  5
5E7
100
AcDbEntity
  8
0
100
AcDbLine
 62
2
  6
CONTINUOUS
 10
12.3262853251
 20
1.9534334596
 11
12.3255623251
 21
1.9555564596
  0
LINE
  5
5E8
100
AcDbEntity
  8
0
100
AcDbLine
 62
2
  6
CONTINUOUS
 10
12.3429673251
 20
2.0975234596
 11
12.3437183251
 21
2.0953104596
  0
LINE
  5
5E9
100
AcDbEntity
  8
0
100
AcDbLine
 62
2
  6
CONTINUOUS
 10
12.3350653251
 20
1.9632824596
 11
12.3357923251
 21
1.9610684596
  0
LINE
  5
5EA
100
AcDbEntity
  8
0
100
AcDbLine
 62
2
  6
CONTINUOUS
 10
12.2538193251
 20
2.0971414596
 11
12.2531003251
 21
2.0993504596
  0
LINE
  5
5EB
100
AcDbEntity
  8
0
100
AcDbLine
 62
2
  6
CONTINUOUS
 10
12.4098503251
 20
2.0441844596
 11
12.4090913251
 21
2.0465604596
  0
LINE
  5
5EC
100
AcDbEntity
  8
0
100
AcDbLine
 62
2
  6
CONTINUOUS
 10
12.2665193251
 20
2.0611124596
 11
12.2672363251
 21
2.0588554596
  0
LINE
  5
5ED
100
AcDbEntity
  8
0
100
AcDbLine
 62
2
  6
CONTINUOUS
 10
12.3899773251
 20
1.9812404596
 11
12.3893173251
 21
1.9833254596
  0
LINE
  5
5EE
100
AcDbEntity
  8
0
100
AcDbLine
 62
2
  6
CONTINUOUS
 10
12.1869483251
 20
2.0231184596
 11
12.1877473251
 21
2.0205824596
  0
LINE
  5
5EF
100
AcDbEntity
  8
0
100
AcDbLine
 62
2
  6
CONTINUOUS
 10
12.3626513251
 20
1.9709944596
 11
12.3619833251
 21
1.9731174596
  0
LINE
  5
5F0
100
AcDbEntity
  8
0
100
AcDbLine
 62
2
  6
CONTINUOUS
 10
12.2558583251
 20
1.9452664596
 11
12.2565283251
 21
1.9431154596
  0
LINE
  5
5F1
100
AcDbEntity
  8
0
100
AcDbLine
 62
2
  6
CONTINUOUS
 10
12.2851593251
 20
1.9539454596
 11
12.2859163251
 21
1.9515074596
  0
LINE
  5
5F2
100
AcDbEntity
  8
0
100
AcDbLine
 62
2
  6
CONTINUOUS
 10
12.1542333251
 20
1.9267114596
 11
12.1549063251
 21
1.9245004596
  0
LINE
  5
5F3
100
AcDbEntity
  8
0
100
AcDbLine
 62
2
  6
CONTINUOUS
 10
12.3200833251
 20
1.9630484596
 11
12.3194383251
 21
1.9652134596
  0
LINE
  5
5F4
100
AcDbEntity
  8
0
100
AcDbLine
 62
2
  6
CONTINUOUS
 10
12.4133673251
 20
2.0192164596
 11
12.4140583251
 21
2.0168844596
  0
LINE
  5
5F5
100
AcDbEntity
  8
0
100
AcDbLine
 62
2
  6
CONTINUOUS
 10
12.1072283251
 20
1.9897654596
 11
12.1065383251
 21
1.9920954596
  0
LINE
  5
5F6
100
AcDbEntity
  8
0
100
AcDbLine
 62
2
  6
CONTINUOUS
 10
12.2910623251
 20
1.9580114596
 11
12.2916503251
 21
1.9560074596
  0
LINE
  5
5F7
100
AcDbEntity
  8
0
100
AcDbLine
 62
2
  6
CONTINUOUS
 10
12.4105793251
 20
2.0416804596
 11
12.4098503251
 21
2.0441844596
  0
LINE
  5
5F8
100
AcDbEntity
  8
0
100
AcDbLine
 62
2
  6
CONTINUOUS
 10
12.1100173251
 20
1.9672994596
 11
12.1107453251
 21
1.9647974596
  0
LINE
  5
5F9
100
AcDbEntity
  8
0
100
AcDbLine
 62
2
  6
CONTINUOUS
 10
12.3792563251
 20
2.0039864596
 11
12.3786133251
 21
2.0062084596
  0
LINE
  5
5FA
100
AcDbEntity
  8
0
100
AcDbLine
 62
2
  6
CONTINUOUS
 10
12.1413393251
 20
2.0049944596
 11
12.1419803251
 21
2.0027724596
  0
LINE
  5
5FB
100
AcDbEntity
  8
0
100
AcDbLine
 62
2
  6
CONTINUOUS
 10
12.2544663251
 20
2.0948534596
 11
12.2538193251
 21
2.0971414596
  0
LINE
  5
5FC
100
AcDbEntity
  8
0
100
AcDbLine
 62
2
  6
CONTINUOUS
 10
12.1645293251
 20
2.0459594596
 11
12.1651203251
 21
2.0438234596
  0
LINE
  5
5FD
100
AcDbEntity
  8
0
100
AcDbLine
 62
2
  6
CONTINUOUS
 10
12.2552443251
 20
1.9474964596
 11
12.2558583251
 21
1.9452664596
  0
LINE
  5
5FE
100
AcDbEntity
  8
0
100
AcDbLine
 62
2
  6
CONTINUOUS
 10
12.1093193251
 20
1.9699404596
 11
12.1100173251
 21
1.9672994596
  0
LINE
  5
5FF
100
AcDbEntity
  8
0
100
AcDbLine
 62
2
  6
CONTINUOUS
 10
12.4112773251
 20
2.0390394596
 11
12.4105793251
 21
2.0416804596
  0
LINE
  5
600
100
AcDbEntity
  8
0
100
AcDbLine
 62
2
  6
CONTINUOUS
 10
12.3905743251
 20
1.9789684596
 11
12.3899773251
 21
1.9812404596
  0
LINE
  5
601
100
AcDbEntity
  8
0
100
AcDbLine
 62
2
  6
CONTINUOUS
 10
12.1300233251
 20
2.0300114596
 11
12.1306163251
 21
2.0277404596
  0
LINE
  5
602
100
AcDbEntity
  8
0
100
AcDbLine
 62
2
  6
CONTINUOUS
 10
12.4140583251
 20
2.0168844596
 11
12.4146853251
 21
2.0144814596
  0
LINE
  5
603
100
AcDbEntity
  8
0
100
AcDbLine
 62
2
  6
CONTINUOUS
 10
12.3357923251
 20
1.9610684596
 11
12.3363813251
 21
1.9588094596
  0
LINE
  5
604
100
AcDbEntity
  8
0
100
AcDbLine
 62
2
  6
CONTINUOUS
 10
12.1065383251
 20
1.9920954596
 11
12.1059123251
 21
1.9944994596
  0
LINE
  5
605
100
AcDbEntity
  8
0
100
AcDbLine
 62
2
  6
CONTINUOUS
 10
12.3437183251
 20
2.0953104596
 11
12.3442943251
 21
2.0930684596
  0
LINE
  5
606
100
AcDbEntity
  8
0
100
AcDbLine
 62
2
  6
CONTINUOUS
 10
12.1537083251
 20
1.9288164596
 11
12.1542333251
 21
1.9267114596
  0
LINE
  5
607
100
AcDbEntity
  8
0
100
AcDbLine
 62
2
  6
CONTINUOUS
 10
12.1864523251
 20
2.0251134596
 11
12.1869483251
 21
2.0231184596
  0
LINE
  5
608
100
AcDbEntity
  8
0
100
AcDbLine
 62
2
  6
CONTINUOUS
 10
12.3631773251
 20
1.9688434596
 11
12.3626513251
 21
1.9709944596
  0
LINE
  5
609
100
AcDbEntity
  8
0
100
AcDbLine
 62
2
  6
CONTINUOUS
 10
12.2550313251
 20
2.0925254596
 11
12.2544663251
 21
2.0948534596
  0
LINE
  5
60A
100
AcDbEntity
  8
0
100
AcDbLine
 62
2
  6
CONTINUOUS
 10
12.1086823251
 20
1.9726064596
 11
12.1093193251
 21
1.9699404596
  0
LINE
  5
60B
100
AcDbEntity
  8
0
100
AcDbLine
 62
2
  6
CONTINUOUS
 10
12.4119143251
 20
2.0363734596
 11
12.4112773251
 21
2.0390394596
  0
LINE
  5
60C
100
AcDbEntity
  8
0
100
AcDbLine
 62
2
  6
CONTINUOUS
 10
12.2546993251
 20
1.9497944596
 11
12.2552443251
 21
1.9474964596
  0
LINE
  5
60D
100
AcDbEntity
  8
0
100
AcDbLine
 62
2
  6
CONTINUOUS
 10
12.1059123251
 20
1.9944994596
 11
12.1053573251
 21
1.9968744596
  0
LINE
  5
60E
100
AcDbEntity
  8
0
100
AcDbLine
 62
2
  6
CONTINUOUS
 10
12.4146853251
 20
2.0144814596
 11
12.4152383251
 21
2.0121074596
  0
LINE
  5
60F
100
AcDbEntity
  8
0
100
AcDbLine
 62
2
  6
CONTINUOUS
 10
12.3442943251
 20
2.0930684596
 11
12.3448153251
 21
2.0907044596
  0
LINE
  5
610
100
AcDbEntity
  8
0
100
AcDbLine
 62
2
  6
CONTINUOUS
 10
12.1419803251
 20
2.0027724596
 11
12.1424513251
 21
2.0006134596
  0
LINE
  5
611
100
AcDbEntity
  8
0
100
AcDbLine
 62
2
  6
CONTINUOUS
 10
12.1081693251
 20
1.9749724596
 11
12.1086823251
 21
1.9726064596
  0
LINE
  5
612
100
AcDbEntity
  8
0
100
AcDbLine
 62
2
  6
CONTINUOUS
 10
12.2846943251
 20
1.9562404596
 11
12.2851593251
 21
1.9539454596
  0
LINE
  5
613
100
AcDbEntity
  8
0
100
AcDbLine
 62
2
  6
CONTINUOUS
 10
12.1076783251
 20
1.9774114596
 11
12.1081693251
 21
1.9749724596
  0
LINE
  5
614
100
AcDbEntity
  8
0
100
AcDbLine
 62
2
  6
CONTINUOUS
 10
12.1295383251
 20
2.0324224596
 11
12.1300233251
 21
2.0300114596
  0
LINE
  5
615
100
AcDbEntity
  8
0
100
AcDbLine
 62
2
  6
CONTINUOUS
 10
12.1053573251
 20
1.9968744596
 11
12.1048943251
 21
1.9991914596
  0
LINE
  5
616
100
AcDbEntity
  8
0
100
AcDbLine
 62
2
  6
CONTINUOUS
 10
12.2554773251
 20
2.0902824596
 11
12.2550313251
 21
2.0925254596
  0
LINE
  5
617
100
AcDbEntity
  8
0
100
AcDbLine
 62
2
  6
CONTINUOUS
 10
12.2672363251
 20
2.0588554596
 11
12.2676363251
 21
2.0568124596
  0
LINE
  5
618
100
AcDbEntity
  8
0
100
AcDbLine
 62
2
  6
CONTINUOUS
 10
12.1532743251
 20
1.9310414596
 11
12.1537083251
 21
1.9288164596
  0
LINE
  5
619
100
AcDbEntity
  8
0
100
AcDbLine
 62
2
  6
CONTINUOUS
 10
12.2542413251
 20
1.9521524596
 11
12.2546993251
 21
1.9497944596
  0
LINE
  5
61A
100
AcDbEntity
  8
0
100
AcDbLine
 62
2
  6
CONTINUOUS
 10
12.1640823251
 20
2.0482844596
 11
12.1645293251
 21
2.0459594596
  0
LINE
  5
61B
100
AcDbEntity
  8
0
100
AcDbLine
 62
2
  6
CONTINUOUS
 10
12.1072133251
 20
1.9799044596
 11
12.1076783251
 21
1.9774114596
  0
LINE
  5
61C
100
AcDbEntity
  8
0
100
AcDbLine
 62
2
  6
CONTINUOUS
 10
12.1067743251
 20
1.9824274596
 11
12.1072133251
 21
1.9799044596
  0
LINE
  5
61D
100
AcDbEntity
  8
0
100
AcDbLine
 62
2
  6
CONTINUOUS
 10
12.1063573251
 20
1.9849594596
 11
12.1067743251
 21
1.9824274596
  0
LINE
  5
61E
100
AcDbEntity
  8
0
100
AcDbLine
 62
2
  6
CONTINUOUS
 10
12.1059673251
 20
1.9874784596
 11
12.1063573251
 21
1.9849594596
  0
LINE
  5
61F
100
AcDbEntity
  8
0
100
AcDbLine
 62
2
  6
CONTINUOUS
 10
12.3452123251
 20
2.0884234596
 11
12.3454353251
 21
2.0862184596
  0
LINE
  5
620
100
AcDbEntity
  8
0
100
AcDbLine
 62
2
  6
CONTINUOUS
 10
12.1638523251
 20
2.0505714596
 11
12.1640823251
 21
2.0482844596
  0
LINE
  5
621
100
AcDbEntity
  8
0
100
AcDbLine
 62
2
  6
CONTINUOUS
 10
12.2536463251
 20
1.9569514596
 11
12.2538823251
 21
1.9545624596
  0
LINE
  5
622
100
AcDbEntity
  8
0
100
AcDbLine
 62
2
  6
CONTINUOUS
 10
12.4160433251
 20
2.0074994596
 11
12.4162633251
 21
2.0051354596
  0
LINE
  5
623
100
AcDbEntity
  8
0
100
AcDbLine
 62
2
  6
CONTINUOUS
 10
12.1045523251
 20
2.0014804596
 11
12.1043333251
 21
2.0038464596
  0
LINE
  5
624
100
AcDbEntity
  8
0
100
AcDbLine
 62
2
  6
CONTINUOUS
 10
12.2841713251
 20
1.9609824596
 11
12.2843873251
 21
1.9585974596
  0
LINE
  5
625
100
AcDbEntity
  8
0
100
AcDbLine
 62
2
  6
CONTINUOUS
 10
12.1862903251
 20
2.0553644596
 11
12.1861093251
 21
2.0573834596
  0
LINE
  5
626
100
AcDbEntity
  8
0
100
AcDbLine
 62
2
  6
CONTINUOUS
 10
12.1861093251
 20
2.0573834596
 11
12.1858993251
 21
2.0598604596
  0
LINE
  5
627
100
AcDbEntity
  8
0
100
AcDbLine
 62
2
  6
CONTINUOUS
 10
12.1527533251
 20
1.9358484596
 11
12.1529493251
 21
1.9333874596
  0
LINE
  5
628
100
AcDbEntity
  8
0
100
AcDbLine
 62
2
  6
CONTINUOUS
 10
12.1427813251
 20
1.9983974596
 11
12.1429573251
 21
1.9960434596
  0
LINE
  5
629
100
AcDbEntity
  8
0
100
AcDbLine
 62
2
  6
CONTINUOUS
 10
12.3778143251
 20
2.0105844596
 11
12.3776393251
 21
2.0129384596
  0
LINE
  5
62A
100
AcDbEntity
  8
0
100
AcDbLine
 62
2
  6
CONTINUOUS
 10
12.1858993251
 20
2.0598604596
 11
12.1857163251
 21
2.0623384596
  0
LINE
  5
62B
100
AcDbEntity
  8
0
100
AcDbLine
 62
2
  6
CONTINUOUS
 10
12.2839973251
 20
1.9633414596
 11
12.2841713251
 21
1.9609824596
  0
LINE
  5
62C
100
AcDbEntity
  8
0
100
AcDbLine
 62
2
  6
CONTINUOUS
 10
12.3639943251
 20
1.9620414596
 11
12.3638353251
 21
1.9642534596
  0
LINE
  5
62D
100
AcDbEntity
  8
0
100
AcDbLine
 62
2
  6
CONTINUOUS
 10
12.1290733251
 20
2.0369424596
 11
12.1292163251
 21
2.0348284596
  0
LINE
  5
62E
100
AcDbEntity
  8
0
100
AcDbLine
 62
2
  6
CONTINUOUS
 10
12.2810893251
 20
2.0438774596
 11
12.2809783251
 21
2.0455594596
  0
LINE
  5
62F
100
AcDbEntity
  8
0
100
AcDbLine
 62
2
  6
CONTINUOUS
 10
12.3194383251
 20
1.9652134596
 11
12.3192873251
 21
1.9676284596
  0
LINE
  5
630
100
AcDbEntity
  8
0
100
AcDbLine
 62
2
  6
CONTINUOUS
 10
12.2809783251
 20
2.0455594596
 11
12.2808393251
 21
2.0478044596
  0
LINE
  5
631
100
AcDbEntity
  8
0
100
AcDbLine
 62
2
  6
CONTINUOUS
 10
12.3367363251
 20
1.9564924596
 11
12.3368753251
 21
1.9541874596
  0
LINE
  5
632
100
AcDbEntity
  8
0
100
AcDbLine
 62
2
  6
CONTINUOUS
 10
12.2838663251
 20
1.9656734596
 11
12.2839973251
 21
1.9633414596
  0
LINE
  5
633
100
AcDbEntity
  8
0
100
AcDbLine
 62
2
  6
CONTINUOUS
 10
12.2535143251
 20
1.9593394596
 11
12.2536463251
 21
1.9569514596
  0
LINE
  5
634
100
AcDbEntity
  8
0
100
AcDbLine
 62
2
  6
CONTINUOUS
 10
12.2808393251
 20
2.0478044596
 11
12.2806943251
 21
2.0504514596
  0
LINE
  5
635
100
AcDbEntity
  8
0
100
AcDbLine
 62
2
  6
CONTINUOUS
 10
12.1826163251
 20
1.9402014596
 11
12.1827423251
 21
1.9378404596
  0
LINE
  5
636
100
AcDbEntity
  8
0
100
AcDbLine
 62
2
  6
CONTINUOUS
 10
12.3264073251
 20
1.9510994596
 11
12.3262853251
 21
1.9534334596
  0
LINE
  5
637
100
AcDbEntity
  8
0
100
AcDbLine
 62
2
  6
CONTINUOUS
 10
12.2806943251
 20
2.0504514596
 11
12.2805663251
 21
2.0530944596
  0
LINE
  5
638
100
AcDbEntity
  8
0
100
AcDbLine
 62
2
  6
CONTINUOUS
 10
12.2905553251
 20
1.9629754596
 11
12.2906773251
 21
1.9604314596
  0
LINE
  5
639
100
AcDbEntity
  8
0
100
AcDbLine
 62
2
  6
CONTINUOUS
 10
12.1043333251
 20
2.0038464596
 11
12.1042433251
 21
2.0058144596
  0
LINE
  5
63A
100
AcDbEntity
  8
0
100
AcDbLine
 62
2
  6
CONTINUOUS
 10
12.1857163251
 20
2.0623384596
 11
12.1856033251
 21
2.0648744596
  0
LINE
  5
63B
100
AcDbEntity
  8
0
100
AcDbLine
 62
2
  6
CONTINUOUS
 10
12.2558303251
 20
2.0863134596
 11
12.2557573251
 21
2.0882914596
  0
LINE
  5
63C
100
AcDbEntity
  8
0
100
AcDbLine
 62
2
  6
CONTINUOUS
 10
12.1637723251
 20
2.0528464596
 11
12.1638523251
 21
2.0505714596
  0
LINE
  5
63D
100
AcDbEntity
  8
0
100
AcDbLine
 62
2
  6
CONTINUOUS
 10
12.1527013251
 20
1.9380324596
 11
12.1527533251
 21
1.9358484596
  0
LINE
  5
63E
100
AcDbEntity
  8
0
100
AcDbLine
 62
2
  6
CONTINUOUS
 10
12.1865973251
 20
2.0763214596
 11
12.1865513251
 21
2.0783574596
  0
LINE
  5
63F
100
AcDbEntity
  8
0
100
AcDbLine
 62
2
  6
CONTINUOUS
 10
12.1290433251
 20
2.0391214596
 11
12.1290733251
 21
2.0369424596
  0
LINE
  5
640
100
AcDbEntity
  8
0
100
AcDbLine
 62
2
  6
CONTINUOUS
 10
12.1042433251
 20
2.0058144596
 11
12.1042223251
 21
2.0079854596
  0
LWPOLYLINE
  5
641
100
AcDbEntity
  8
0
100
AcDbPolyline
 62
2
  6
CONTINUOUS
 90
2
 70
0
 43
0.0120000003
 10
16.38
 20
5.5
 10
16.529998
 20
5.574998
  0
LWPOLYLINE
  5
642
100
AcDbEntity
  8
0
100
AcDbPolyline
 62
2
  6
CONTINUOUS
 90
2
 70
0
 43
0.0120000003
 10
16.38
 20
5.5
 10
16.529998
 20
5.424999
  0
LINE
  5
643
100
AcDbEntity
  8
0
100
AcDbLine
 62
2
  6
CONTINUOUS
 10
12.3786133251
 20
2.0062084596
 11
12.3781443251
 21
2.0083674596
  0
LINE
  5
644
100
AcDbEntity
  8
0
100
AcDbLine
 62
2
  6
CONTINUOUS
 10
12.4124273251
 20
2.0340094596
 11
12.4119143251
 21
2.0363734596
  0
LINE
  5
645
100
AcDbEntity
  8
0
100
AcDbLine
 62
2
  6
CONTINUOUS
 10
12.3910573251
 20
1.9765584596
 11
12.3905743251
 21
1.9789684596
  0
LINE
  5
646
100
AcDbEntity
  8
0
100
AcDbLine
 62
2
  6
CONTINUOUS
 10
12.4129153251
 20
2.0315694596
 11
12.4124273251
 21
2.0340094596
  0
LINE
  5
647
100
AcDbEntity
  8
0
100
AcDbLine
 62
2
  6
CONTINUOUS
 10
12.4152383251
 20
2.0121074596
 11
12.4157003251
 21
2.0097904596
  0
LINE
  5
648
100
AcDbEntity
  8
0
100
AcDbLine
 62
2
  6
CONTINUOUS
 10
12.4133813251
 20
2.0290774596
 11
12.4129153251
 21
2.0315694596
  0
LINE
  5
649
100
AcDbEntity
  8
0
100
AcDbLine
 62
2
  6
CONTINUOUS
 10
12.3635643251
 20
1.9666314596
 11
12.3631773251
 21
1.9688434596
  0
LINE
  5
64A
100
AcDbEntity
  8
0
100
AcDbLine
 62
2
  6
CONTINUOUS
 10
12.4138213251
 20
2.0265544596
 11
12.4133813251
 21
2.0290774596
  0
LINE
  5
64B
100
AcDbEntity
  8
0
100
AcDbLine
 62
2
  6
CONTINUOUS
 10
12.3448153251
 20
2.0907044596
 11
12.3452123251
 21
2.0884234596
  0
LINE
  5
64C
100
AcDbEntity
  8
0
100
AcDbLine
 62
2
  6
CONTINUOUS
 10
12.2331723251
 20
2.1353624596
 11
12.2327833251
 21
2.1377144596
  0
LINE
  5
64D
100
AcDbEntity
  8
0
100
AcDbLine
 62
2
  6
CONTINUOUS
 10
12.2874233251
 20
1.8736194596
 11
12.2878123251
 21
1.8712674596
  0
LINE
  5
64E
100
AcDbEntity
  8
0
100
AcDbLine
 62
2
  6
CONTINUOUS
 10
12.4142373251
 20
2.0240214596
 11
12.4138213251
 21
2.0265544596
  0
LINE
  5
64F
100
AcDbEntity
  8
0
100
AcDbLine
 62
2
  6
CONTINUOUS
 10
12.2906773251
 20
1.9604314596
 11
12.2910623251
 21
1.9580114596
  0
LINE
  5
650
100
AcDbEntity
  8
0
100
AcDbLine
 62
2
  6
CONTINUOUS
 10
12.4146303251
 20
2.0215024596
 11
12.4142373251
 21
2.0240214596
  0
LINE
  5
651
100
AcDbEntity
  8
0
100
AcDbLine
 62
2
  6
CONTINUOUS
 10
12.3363813251
 20
1.9588094596
 11
12.3367363251
 21
1.9564924596
  0
LINE
  5
652
100
AcDbEntity
  8
0
100
AcDbLine
 62
2
  6
CONTINUOUS
 10
12.3429773251
 20
2.0251354596
 11
12.3433333251
 21
2.0227644596
  0
LINE
  5
653
100
AcDbEntity
  8
0
100
AcDbLine
 62
2
  6
CONTINUOUS
 10
12.4157003251
 20
2.0097904596
 11
12.4160433251
 21
2.0074994596
  0
LINE
  5
654
100
AcDbEntity
  8
0
100
AcDbLine
 62
2
  6
CONTINUOUS
 10
12.1048943251
 20
1.9991914596
 11
12.1045523251
 21
2.0014804596
  0
LINE
  5
655
100
AcDbEntity
  8
0
100
AcDbLine
 62
2
  6
CONTINUOUS
 10
12.1055973251
 20
1.9899614596
 11
12.1059673251
 21
1.9874784596
  0
LINE
  5
656
100
AcDbEntity
  8
0
100
AcDbLine
 62
2
  6
CONTINUOUS
 10
12.1424513251
 20
2.0006134596
 11
12.1427813251
 21
1.9983974596
  0
LINE
  5
657
100
AcDbEntity
  8
0
100
AcDbLine
 62
2
  6
CONTINUOUS
 10
12.2538823251
 20
1.9545624596
 11
12.2542413251
 21
1.9521524596
  0
LINE
  5
658
100
AcDbEntity
  8
0
100
AcDbLine
 62
2
  6
CONTINUOUS
 10
12.3781443251
 20
2.0083674596
 11
12.3778143251
 21
2.0105844596
  0
LINE
  5
659
100
AcDbEntity
  8
0
100
AcDbLine
 62
2
  6
CONTINUOUS
 10
12.4149963251
 20
2.0190184596
 11
12.4146303251
 21
2.0215024596
  0
LINE
  5
65A
100
AcDbEntity
  8
0
100
AcDbLine
 62
2
  6
CONTINUOUS
 10
12.4153383251
 20
2.0165934596
 11
12.4149963251
 21
2.0190184596
  0
LINE
  5
65B
100
AcDbEntity
  8
0
100
AcDbLine
 62
2
  6
CONTINUOUS
 10
12.1052563251
 20
1.9923864596
 11
12.1055973251
 21
1.9899614596
  0
LINE
  5
65C
100
AcDbEntity
  8
0
100
AcDbLine
 62
2
  6
CONTINUOUS
 10
12.2557573251
 20
2.0882914596
 11
12.2554773251
 21
2.0902824596
  0
LINE
  5
65D
100
AcDbEntity
  8
0
100
AcDbLine
 62
2
  6
CONTINUOUS
 10
12.1529493251
 20
1.9333874596
 11
12.1532743251
 21
1.9310414596
  0
LINE
  5
65E
100
AcDbEntity
  8
0
100
AcDbLine
 62
2
  6
CONTINUOUS
 10
12.4156563251
 20
2.0142474596
 11
12.4153383251
 21
2.0165934596
  0
LINE
  5
65F
100
AcDbEntity
  8
0
100
AcDbLine
 62
2
  6
CONTINUOUS
 10
12.1049393251
 20
1.9947334596
 11
12.1052563251
 21
1.9923864596
  0
LINE
  5
660
100
AcDbEntity
  8
0
100
AcDbLine
 62
2
  6
CONTINUOUS
 10
12.1292163251
 20
2.0348284596
 11
12.1295383251
 21
2.0324224596
  0
LINE
  5
661
100
AcDbEntity
  8
0
100
AcDbLine
 62
2
  6
CONTINUOUS
 10
12.3913773251
 20
1.9741534596
 11
12.3910573251
 21
1.9765584596
  0
LINE
  5
662
100
AcDbEntity
  8
0
100
AcDbLine
 62
2
  6
CONTINUOUS
 10
12.1046463251
 20
1.9969764596
 11
12.1049393251
 21
1.9947334596
  0
LINE
  5
663
100
AcDbEntity
  8
0
100
AcDbLine
 62
2
  6
CONTINUOUS
 10
12.2843873251
 20
1.9585974596
 11
12.2846943251
 21
1.9562404596
  0
LINE
  5
664
100
AcDbEntity
  8
0
100
AcDbLine
 62
2
  6
CONTINUOUS
 10
12.4159483251
 20
2.0120034596
 11
12.4156563251
 21
2.0142474596
  0
LINE
  5
665
100
AcDbEntity
  8
0
100
AcDbLine
 62
2
  6
CONTINUOUS
 10
12.4162153251
 20
2.0098844596
 11
12.4159483251
 21
2.0120034596
  0
LINE
  5
666
100
AcDbEntity
  8
0
100
AcDbLine
 62
2
  6
CONTINUOUS
 10
12.1043793251
 20
1.9990974596
 11
12.1046463251
 21
1.9969764596
  0
LINE
  5
667
100
AcDbEntity
  8
0
100
AcDbLine
 62
2
  6
CONTINUOUS
 10
12.4164593251
 20
2.0079104596
 11
12.4162153251
 21
2.0098844596
  0
LINE
  5
668
100
AcDbEntity
  8
0
100
AcDbLine
 62
2
  6
CONTINUOUS
 10
12.1041363251
 20
2.0010704596
 11
12.1043793251
 21
1.9990974596
  0
LINE
  5
669
100
AcDbEntity
  8
0
100
AcDbLine
 62
2
  6
CONTINUOUS
 10
12.1039173251
 20
2.0028764596
 11
12.1041363251
 21
2.0010704596
  0
LINE
  5
66A
100
AcDbEntity
  8
0
100
AcDbLine
 62
2
  6
CONTINUOUS
 10
12.4168693251
 20
2.0044904596
 11
12.4164593251
 21
2.0079104596
  0
LINE
  5
66B
100
AcDbEntity
  8
0
100
AcDbLine
 62
2
  6
CONTINUOUS
 10
12.1037263251
 20
2.0044904596
 11
12.1039173251
 21
2.0028764596
  0
LINE
  5
66C
100
AcDbEntity
  8
0
100
AcDbLine
 62
2
  6
CONTINUOUS
 10
12.3638353251
 20
1.9642534596
 11
12.3635643251
 21
1.9666314596
  0
LINE
  5
66D
100
AcDbEntity
  8
0
100
AcDbLine
 62
2
  6
CONTINUOUS
 10
12.3915203251
 20
1.9720394596
 11
12.3913773251
 21
1.9741534596
  0
LINE
  5
66E
100
AcDbEntity
  8
0
100
AcDbLine
 62
2
  6
CONTINUOUS
 10
12.4162633251
 20
2.0051354596
 11
12.4163523251
 21
2.0031664596
  0
LINE
  5
66F
100
AcDbEntity
  8
0
100
AcDbLine
 62
2
  6
CONTINUOUS
 10
12.3640833251
 20
1.9598434596
 11
12.3639943251
 21
1.9620414596
  0
LINE
  5
670
100
AcDbEntity
  8
0
100
AcDbLine
 62
2
  6
CONTINUOUS
 10
12.2805663251
 20
2.0530944596
 11
12.2804863251
 21
2.0553454596
  0
LINE
  5
671
100
AcDbEntity
  8
0
100
AcDbLine
 62
2
  6
CONTINUOUS
 10
12.2676363251
 20
2.0568124596
 11
12.2677143251
 21
2.0544564596
  0
LINE
  5
672
100
AcDbEntity
  8
0
100
AcDbLine
 62
2
  6
CONTINUOUS
 10
12.3641273251
 20
1.9575244596
 11
12.3640833251
 21
1.9598434596
  0
LINE
  5
673
100
AcDbEntity
  8
0
100
AcDbLine
 62
2
  6
CONTINUOUS
 10
12.2838243251
 20
1.9680254596
 11
12.2838663251
 21
1.9656734596
  0
LINE
  5
674
100
AcDbEntity
  8
0
100
AcDbLine
 62
2
  6
CONTINUOUS
 10
12.2534763251
 20
1.9617254596
 11
12.2535143251
 21
1.9593394596
  0
LINE
  5
675
100
AcDbEntity
  8
0
100
AcDbLine
 62
2
  6
CONTINUOUS
 10
12.3915533251
 20
1.9698604596
 11
12.3915203251
 21
1.9720394596
  0
LINE
  5
676
100
AcDbEntity
  8
0
100
AcDbLine
 62
2
  6
CONTINUOUS
 10
12.4163523251
 20
2.0031664596
 11
12.4163753251
 21
2.0009954596
  0
LINE
  5
677
100
AcDbEntity
  8
0
100
AcDbLine
 62
2
  6
CONTINUOUS
 10
12.2804863251
 20
2.0553454596
 11
12.2804653251
 21
2.0576474596
  0
LINE
  5
678
100
AcDbEntity
  8
0
100
AcDbLine
 62
2
  6
CONTINUOUS
 10
12.3454353251
 20
2.0862184596
 11
12.3454563251
 21
2.0839004596
  0
LINE
  5
679
100
AcDbEntity
  8
0
100
AcDbLine
 62
2
  6
CONTINUOUS
 10
12.2905553251
 20
1.9654974596
 11
12.2905553251
 21
1.9629754596
  0
LINE
  5
67A
100
AcDbEntity
  8
0
100
AcDbLine
 62
2
  6
CONTINUOUS
 10
12.3641273251
 20
1.9551204596
 11
12.3641273251
 21
1.9575244596
  0
LINE
  5
67B
100
AcDbEntity
  8
0
100
AcDbLine
 62
2
  6
CONTINUOUS
 10
12.2327833251
 20
2.1377144596
 11
12.2327933251
 21
2.1400584596
  0
LINE
  5
67C
100
AcDbEntity
  8
0
100
AcDbLine
 62
2
  6
CONTINUOUS
 10
12.1637833251
 20
2.0552114596
 11
12.1637723251
 21
2.0528464596
  0
LINE
  5
67D
100
AcDbEntity
  8
0
100
AcDbLine
 62
2
  6
CONTINUOUS
 10
12.2878123251
 20
1.8712674596
 11
12.2878013251
 21
1.8689224596
  0
LINE
  5
67E
100
AcDbEntity
  8
0
100
AcDbLine
 62
2
  6
CONTINUOUS
 10
12.3368753251
 20
1.9541874596
 11
12.3368583251
 21
1.9518904596
  0
LINE
  5
67F
100
AcDbEntity
  8
0
100
AcDbLine
 62
2
  6
CONTINUOUS
 10
12.3776393251
 20
2.0129384596
 11
12.3776623251
 21
2.0152204596
  0
LINE
  5
680
100
AcDbEntity
  8
0
100
AcDbLine
 62
2
  6
CONTINUOUS
 10
12.1429573251
 20
1.9960434596
 11
12.1429323251
 21
1.9937604596
  0
LINE
  5
681
100
AcDbEntity
  8
0
100
AcDbLine
 62
2
  6
CONTINUOUS
 10
12.1863153251
 20
2.0573604596
 11
12.1862903251
 21
2.0553644596
  0
LINE
  5
682
100
AcDbEntity
  8
0
100
AcDbLine
 62
2
  6
CONTINUOUS
 10
12.3640853251
 20
1.9526674596
 11
12.3641273251
 21
1.9551204596
  0
LINE
  5
683
100
AcDbEntity
  8
0
100
AcDbLine
 62
2
  6
CONTINUOUS
 10
12.2535183251
 20
1.9640894596
 11
12.2534763251
 21
1.9617254596
  0
LINE
  5
684
100
AcDbEntity
  8
0
100
AcDbLine
 62
2
  6
CONTINUOUS
 10
12.1042223251
 20
2.0079854596
 11
12.1042663251
 21
2.0104134596
  0
LINE
  5
685
100
AcDbEntity
  8
0
100
AcDbLine
 62
2
  6
CONTINUOUS
 10
12.4163753251
 20
2.0009954596
 11
12.4163293251
 21
1.9985674596
  0
LINE
  5
686
100
AcDbEntity
  8
0
100
AcDbLine
 62
2
  6
CONTINUOUS
 10
12.3433333251
 20
2.0227644596
 11
12.3432893251
 21
2.0204904596
  0
LINE
  5
687
100
AcDbEntity
  8
0
100
AcDbLine
 62
2
  6
CONTINUOUS
 10
12.2905993251
 20
1.9675134596
 11
12.2905553251
 21
1.9654974596
  0
LINE
  5
688
100
AcDbEntity
  8
0
100
AcDbLine
 62
2
  6
CONTINUOUS
 10
12.1638423251
 20
2.0574494596
 11
12.1637833251
 21
2.0552114596
  0
LINE
  5
689
100
AcDbEntity
  8
0
100
AcDbLine
 62
2
  6
CONTINUOUS
 10
12.2804653251
 20
2.0576474596
 11
12.2805303251
 21
2.0599854596
  0
LINE
  5
68A
100
AcDbEntity
  8
0
100
AcDbLine
 62
2
  6
CONTINUOUS
 10
12.1527683251
 20
1.9402874596
 11
12.1527013251
 21
1.9380324596
  0
LINE
  5
68B
100
AcDbEntity
  8
0
100
AcDbLine
 62
2
  6
CONTINUOUS
 10
12.1291113251
 20
2.0413884596
 11
12.1290433251
 21
2.0391214596
  0
LINE
  5
68C
100
AcDbEntity
  8
0
100
AcDbLine
 62
2
  6
CONTINUOUS
 10
12.3914843251
 20
1.9675934596
 11
12.3915533251
 21
1.9698604596
  0
LINE
  5
68D
100
AcDbEntity
  8
0
100
AcDbLine
 62
2
  6
CONTINUOUS
 10
12.3640093251
 20
1.9504724596
 11
12.3640853251
 21
1.9526674596
  0
LINE
  5
68E
100
AcDbEntity
  8
0
100
AcDbLine
 62
2
  6
CONTINUOUS
 10
12.2839103251
 20
1.9704144596
 11
12.2838243251
 21
1.9680254596
  0
LINE
  5
68F
100
AcDbEntity
  8
0
100
AcDbLine
 62
2
  6
CONTINUOUS
 10
12.1856033251
 20
2.0648744596
 11
12.1856853251
 21
2.0670434596
  0
LINE
  5
690
100
AcDbEntity
  8
0
100
AcDbLine
 62
2
  6
CONTINUOUS
 10
12.1042663251
 20
2.0104134596
 11
12.1043753251
 21
2.0131514596
  0
LINE
  5
691
100
AcDbEntity
  8
0
100
AcDbLine
 62
2
  6
CONTINUOUS
 10
12.4163293251
 20
1.9985674596
 11
12.4162193251
 21
1.9958304596
  0
LINE
  5
692
100
AcDbEntity
  8
0
100
AcDbLine
 62
2
  6
CONTINUOUS
 10
12.2536323251
 20
1.9664094596
 11
12.2535183251
 21
1.9640894596
  0
LINE
  5
693
100
AcDbEntity
  8
0
100
AcDbLine
 62
2
  6
CONTINUOUS
 10
12.1639513251
 20
2.0596394596
 11
12.1638423251
 21
2.0574494596
  0
LINE
  5
694
100
AcDbEntity
  8
0
100
AcDbLine
 62
2
  6
CONTINUOUS
 10
12.4162193251
 20
1.9958304596
 11
12.4160683251
 21
1.9931384596
  0
LINE
  5
695
100
AcDbEntity
  8
0
100
AcDbLine
 62
2
  6
CONTINUOUS
 10
12.1043753251
 20
2.0131514596
 11
12.1045263251
 21
2.0158414596
  0
LINE
  5
696
100
AcDbEntity
  8
0
100
AcDbLine
 62
2
  6
CONTINUOUS
 10
12.3454563251
 20
2.0839004596
 11
12.3453213251
 21
2.0815964596
  0
LINE
  5
697
100
AcDbEntity
  8
0
100
AcDbLine
 62
2
  6
CONTINUOUS
 10
12.3638753251
 20
1.9482564596
 11
12.3640093251
 21
1.9504724596
  0
LINE
  5
698
100
AcDbEntity
  8
0
100
AcDbLine
 62
2
  6
CONTINUOUS
 10
12.1045263251
 20
2.0158414596
 11
12.1046953251
 21
2.0184554596
  0
LINE
  5
699
100
AcDbEntity
  8
0
100
AcDbLine
 62
2
  6
CONTINUOUS
 10
12.3913303251
 20
1.9652134596
 11
12.3914843251
 21
1.9675934596
  0
LINE
  5
69A
100
AcDbEntity
  8
0
100
AcDbLine
 62
2
  6
CONTINUOUS
 10
12.1292663251
 20
2.0437664596
 11
12.1291113251
 21
2.0413884596
  0
LINE
  5
69B
100
AcDbEntity
  8
0
100
AcDbLine
 62
2
  6
CONTINUOUS
 10
12.4160683251
 20
1.9931384596
 11
12.4158983251
 21
1.9905264596
  0
LINE
  5
69C
100
AcDbEntity
  8
0
100
AcDbLine
 62
2
  6
CONTINUOUS
 10
12.2907613251
 20
1.9697904596
 11
12.2905993251
 21
1.9675134596
  0
LINE
  5
69D
100
AcDbEntity
  8
0
100
AcDbLine
 62
2
  6
CONTINUOUS
 10
12.4158983251
 20
1.9905264596
 11
12.4157113251
 21
1.9878994596
  0
LINE
  5
69E
100
AcDbEntity
  8
0
100
AcDbLine
 62
2
  6
CONTINUOUS
 10
12.2490513251
 20
1.9944034596
 11
12.2491753251
 21
1.9961314596
  0
LINE
  5
69F
100
AcDbEntity
  8
0
100
AcDbLine
 62
2
  6
CONTINUOUS
 10
12.1046953251
 20
2.0184554596
 11
12.1048843251
 21
2.0210824596
  0
LINE
  5
6A0
100
AcDbEntity
  8
0
100
AcDbLine
 62
2
  6
CONTINUOUS
 10
12.3192873251
 20
1.9676284596
 11
12.3194593251
 21
1.9699284596
  0
LINE
  5
6A1
100
AcDbEntity
  8
0
100
AcDbLine
 62
2
  6
CONTINUOUS
 10
12.2488913251
 20
1.9922744596
 11
12.2490513251
 21
1.9944034596
  0
LINE
  5
6A2
100
AcDbEntity
  8
0
100
AcDbLine
 62
2
  6
CONTINUOUS
 10
12.4157113251
 20
1.9878994596
 11
12.4155233251
 21
1.9853994596
  0
LINE
  5
6A3
100
AcDbEntity
  8
0
100
AcDbLine
 62
2
  6
CONTINUOUS
 10
12.2538023251
 20
1.9686634596
 11
12.2536323251
 21
1.9664094596
  0
LINE
  5
6A4
100
AcDbEntity
  8
0
100
AcDbLine
 62
2
  6
CONTINUOUS
 10
12.1048843251
 20
2.0210824596
 11
12.1050733251
 21
2.0235814596
  0
LINE
  5
6A5
100
AcDbEntity
  8
0
100
AcDbLine
 62
2
  6
CONTINUOUS
 10
12.2805303251
 20
2.0599854596
 11
12.2807153251
 21
2.0623484596
  0
LINE
  5
6A6
100
AcDbEntity
  8
0
100
AcDbLine
 62
2
  6
CONTINUOUS
 10
12.1050733251
 20
2.0235814596
 11
12.1052483251
 21
2.0258094596
  0
LINE
  5
6A7
100
AcDbEntity
  8
0
100
AcDbLine
 62
2
  6
CONTINUOUS
 10
12.4155233251
 20
1.9853994596
 11
12.4153473251
 21
1.9831714596
  0
LINE
  5
6A8
100
AcDbEntity
  8
0
100
AcDbLine
 62
2
  6
CONTINUOUS
 10
12.2487003251
 20
1.9898734596
 11
12.2488913251
 21
1.9922744596
  0
LINE
  5
6A9
100
AcDbEntity
  8
0
100
AcDbLine
 62
2
  6
CONTINUOUS
 10
12.1052483251
 20
2.0258094596
 11
12.1053933251
 21
2.0276244596
  0
LINE
  5
6AA
100
AcDbEntity
  8
0
100
AcDbLine
 62
2
  6
CONTINUOUS
 10
12.4153473251
 20
1.9831714596
 11
12.4152003251
 21
1.9813574596
  0
LINE
  5
6AB
100
AcDbEntity
  8
0
100
AcDbLine
 62
2
  6
CONTINUOUS
 10
12.1858703251
 20
2.0690554596
 11
12.1860593251
 21
2.0713754596
  0
LINE
  5
6AC
100
AcDbEntity
  8
0
100
AcDbLine
 62
2
  6
CONTINUOUS
 10
12.3453213251
 20
2.0815964596
 11
12.3451283251
 21
2.0792994596
  0
LINE
  5
6AD
100
AcDbEntity
  8
0
100
AcDbLine
 62
2
  6
CONTINUOUS
 10
12.2484793251
 20
1.9873264596
 11
12.2487003251
 21
1.9898734596
  0
LINE
  5
6AE
100
AcDbEntity
  8
0
100
AcDbLine
 62
2
  6
CONTINUOUS
 10
12.2677143251
 20
2.0544564596
 11
12.2675083251
 21
2.0520834596
  0
LINE
  5
6AF
100
AcDbEntity
  8
0
100
AcDbLine
 62
2
  6
CONTINUOUS
 10
12.2556353251
 20
2.0840844596
 11
12.2558303251
 21
2.0863134596
  0
LINE
  5
6B0
100
AcDbEntity
  8
0
100
AcDbLine
 62
2
  6
CONTINUOUS
 10
12.1865433251
 20
2.0599504596
 11
12.1863153251
 21
2.0573604596
  0
LINE
  5
6B1
100
AcDbEntity
  8
0
100
AcDbLine
 62
2
  6
CONTINUOUS
 10
12.1529723251
 20
1.9425904596
 11
12.1527683251
 21
1.9402874596
  0
LINE
  5
6B2
100
AcDbEntity
  8
0
100
AcDbLine
 62
2
  6
CONTINUOUS
 10
12.1828093251
 20
1.9423694596
 11
12.1826163251
 21
1.9402014596
  0
LINE
  5
6B3
100
AcDbEntity
  8
0
100
AcDbLine
 62
2
  6
CONTINUOUS
 10
12.1641613251
 20
2.0619644596
 11
12.1639513251
 21
2.0596394596
  0
LINE
  5
6B4
100
AcDbEntity
  8
0
100
AcDbLine
 62
2
  6
CONTINUOUS
 10
12.3911033251
 20
1.9627014596
 11
12.3913303251
 21
1.9652134596
  0
LINE
  5
6B5
100
AcDbEntity
  8
0
100
AcDbLine
 62
2
  6
CONTINUOUS
 10
12.2529403251
 20
2.0289964596
 11
12.2526163251
 21
2.0254354596
  0
LINE
  5
6B6
100
AcDbEntity
  8
0
100
AcDbLine
 62
2
  6
CONTINUOUS
 10
12.1294953251
 20
2.0462804596
 11
12.1292663251
 21
2.0437664596
  0
LINE
  5
6B7
100
AcDbEntity
  8
0
100
AcDbLine
 62
2
  6
CONTINUOUS
 10
12.1856853251
 20
2.0670434596
 11
12.1858703251
 21
2.0690554596
  0
LINE
  5
6B8
100
AcDbEntity
  8
0
100
AcDbLine
 62
2
  6
CONTINUOUS
 10
12.3451283251
 20
2.0792994596
 11
12.3449163251
 21
2.0770284596
  0
LINE
  5
6B9
100
AcDbEntity
  8
0
100
AcDbLine
 62
2
  6
CONTINUOUS
 10
12.1860593251
 20
2.0713754596
 11
12.1862843251
 21
2.0737554596
  0
LINE
  5
6BA
100
AcDbEntity
  8
0
100
AcDbLine
 62
2
  6
CONTINUOUS
 10
12.2841333251
 20
1.9727754596
 11
12.2839103251
 21
1.9704144596
  0
LINE
  5
6BB
100
AcDbEntity
  8
0
100
AcDbLine
 62
2
  6
CONTINUOUS
 10
12.2482333251
 20
1.9847644596
 11
12.2484793251
 21
1.9873264596
  0
LINE
  5
6BC
100
AcDbEntity
  8
0
100
AcDbLine
 62
2
  6
CONTINUOUS
 10
12.3368583251
 20
1.9518904596
 11
12.3366293251
 21
1.9495714596
  0
LINE
  5
6BD
100
AcDbEntity
  8
0
100
AcDbLine
 62
2
  6
CONTINUOUS
 10
12.3636503251
 20
1.9459994596
 11
12.3638753251
 21
1.9482564596
  0
LINE
  5
6BE
100
AcDbEntity
  8
0
100
AcDbLine
 62
2
  6
CONTINUOUS
 10
12.1429323251
 20
1.9937604596
 11
12.1427073251
 21
1.9915314596
  0
LINE
  5
6BF
100
AcDbEntity
  8
0
100
AcDbLine
 62
2
  6
CONTINUOUS
 10
12.2540223251
 20
1.9708294596
 11
12.2538023251
 21
1.9686634596
  0
LINE
  5
6C0
100
AcDbEntity
  8
0
100
AcDbLine
 62
2
  6
CONTINUOUS
 10
12.3776623251
 20
2.0152204596
 11
12.3778893251
 21
2.0174494596
  0
LINE
  5
6C1
100
AcDbEntity
  8
0
100
AcDbLine
 62
2
  6
CONTINUOUS
 10
12.1297483251
 20
2.0486544596
 11
12.1294953251
 21
2.0462804596
  0
LINE
  5
6C2
100
AcDbEntity
  8
0
100
AcDbLine
 62
2
  6
CONTINUOUS
 10
12.2479623251
 20
1.9823074596
 11
12.2482333251
 21
1.9847644596
  0
LINE
  5
6C3
100
AcDbEntity
  8
0
100
AcDbLine
 62
2
  6
CONTINUOUS
 10
12.1300313251
 20
2.0509754596
 11
12.1297483251
 21
2.0486544596
  0
LINE
  5
6C4
100
AcDbEntity
  8
0
100
AcDbLine
 62
2
  6
CONTINUOUS
 10
12.1862843251
 20
2.0737554596
 11
12.1865973251
 21
2.0763214596
  0
LINE
  5
6C5
100
AcDbEntity
  8
0
100
AcDbLine
 62
2
  6
CONTINUOUS
 10
12.2543023251
 20
1.9730764596
 11
12.2540223251
 21
1.9708294596
  0
LINE
  5
6C6
100
AcDbEntity
  8
0
100
AcDbLine
 62
2
  6
CONTINUOUS
 10
12.2878013251
 20
1.8689224596
 11
12.2875173251
 21
1.8666584596
  0
LINE
  5
6C7
100
AcDbEntity
  8
0
100
AcDbLine
 62
2
  6
CONTINUOUS
 10
12.2327933251
 20
2.1400584596
 11
12.2330813251
 21
2.1423244596
  0
LINE
  5
6C8
100
AcDbEntity
  8
0
100
AcDbLine
 62
2
  6
CONTINUOUS
 10
12.2476643251
 20
1.9799984596
 11
12.2479623251
 21
1.9823074596
  0
LINE
  5
6C9
100
AcDbEntity
  8
0
100
AcDbLine
 62
2
  6
CONTINUOUS
 10
12.1303593251
 20
2.0533364596
 11
12.1300313251
 21
2.0509754596
  0
LINE
  5
6CA
100
AcDbEntity
  8
0
100
AcDbLine
 62
2
  6
CONTINUOUS
 10
12.1645043251
 20
2.0644254596
 11
12.1641613251
 21
2.0619644596
  0
LINE
  5
6CB
100
AcDbEntity
  8
0
100
AcDbLine
 62
2
  6
CONTINUOUS
 10
12.2807153251
 20
2.0623484596
 11
12.2810493251
 21
2.0646974596
  0
LINE
  5
6CC
100
AcDbEntity
  8
0
100
AcDbLine
 62
2
  6
CONTINUOUS
 10
12.2473383251
 20
1.9777834596
 11
12.2476643251
 21
1.9799984596
  0
LINE
  5
6CD
100
AcDbEntity
  8
0
100
AcDbLine
 62
2
  6
CONTINUOUS
 10
12.1533213251
 20
1.9449274596
 11
12.1529723251
 21
1.9425904596
  0
LINE
  5
6CE
100
AcDbEntity
  8
0
100
AcDbLine
 62
2
  6
CONTINUOUS
 10
12.1307343251
 20
2.0556944596
 11
12.1303593251
 21
2.0533364596
  0
LINE
  5
6CF
100
AcDbEntity
  8
0
100
AcDbLine
 62
2
  6
CONTINUOUS
 10
12.1311603251
 20
2.0579994596
 11
12.1307343251
 21
2.0556944596
  0
LINE
  5
6D0
100
AcDbEntity
  8
0
100
AcDbLine
 62
2
  6
CONTINUOUS
 10
12.3908473251
 20
1.9603274596
 11
12.3911033251
 21
1.9627014596
  0
LINE
  5
6D1
100
AcDbEntity
  8
0
100
AcDbLine
 62
2
  6
CONTINUOUS
 10
12.3905633251
 20
1.9580064596
 11
12.3908473251
 21
1.9603274596
  0
LINE
  5
6D2
100
AcDbEntity
  8
0
100
AcDbLine
 62
2
  6
CONTINUOUS
 10
12.3432893251
 20
2.0204904596
 11
12.3429803251
 21
2.0181264596
  0
LINE
  5
6D3
100
AcDbEntity
  8
0
100
AcDbLine
 62
2
  6
CONTINUOUS
 10
12.3902373251
 20
1.9556454596
 11
12.3905633251
 21
1.9580064596
  0
LINE
  5
6D4
100
AcDbEntity
  8
0
100
AcDbLine
 62
2
  6
CONTINUOUS
 10
12.2844653251
 20
1.9751514596
 11
12.2841333251
 21
1.9727754596
  0
LINE
  5
6D5
100
AcDbEntity
  8
0
100
AcDbLine
 62
2
  6
CONTINUOUS
 10
12.3260953251
 20
1.9488664596
 11
12.3264073251
 21
1.9510994596
  0
LINE
  5
6D6
100
AcDbEntity
  8
0
100
AcDbLine
 62
2
  6
CONTINUOUS
 10
12.3633053251
 20
1.9436864596
 11
12.3636503251
 21
1.9459994596
  0
LINE
  5
6D7
100
AcDbEntity
  8
0
100
AcDbLine
 62
2
  6
CONTINUOUS
 10
12.3190033251
 20
2.0793374596
 11
12.3193563251
 21
2.0816724596
  0
LINE
  5
6D8
100
AcDbEntity
  8
0
100
AcDbLine
 62
2
  6
CONTINUOUS
 10
12.3449163251
 20
2.0770284596
 11
12.3445693251
 21
2.0747324596
  0
LINE
  5
6D9
100
AcDbEntity
  8
0
100
AcDbLine
 62
2
  6
CONTINUOUS
 10
12.2546663251
 20
1.9754814596
 11
12.2543023251
 21
1.9730764596
  0
LINE
  5
6DA
100
AcDbEntity
  8
0
100
AcDbLine
 62
2
  6
CONTINUOUS
 10
12.2675083251
 20
2.0520834596
 11
12.2671443251
 21
2.0497174596
  0
LINE
  5
6DB
100
AcDbEntity
  8
0
100
AcDbLine
 62
2
  6
CONTINUOUS
 10
12.3898613251
 20
1.9532874596
 11
12.3902373251
 21
1.9556454596
  0
LINE
  5
6DC
100
AcDbEntity
  8
0
100
AcDbLine
 62
2
  6
CONTINUOUS
 10
12.2911273251
 20
1.9720334596
 11
12.2907613251
 21
1.9697904596
  0
LINE
  5
6DD
100
AcDbEntity
  8
0
100
AcDbLine
 62
2
  6
CONTINUOUS
 10
12.2469783251
 20
1.9755934596
 11
12.2473383251
 21
1.9777834596
  0
LINE
  5
6DE
100
AcDbEntity
  8
0
100
AcDbLine
 62
2
  6
CONTINUOUS
 10
12.2848753251
 20
1.9774654596
 11
12.2844653251
 21
1.9751514596
  0
LINE
  5
6DF
100
AcDbEntity
  8
0
100
AcDbLine
 62
2
  6
CONTINUOUS
 10
12.2465773251
 20
1.9733594596
 11
12.2469783251
 21
1.9755934596
  0
LINE
  5
6E0
100
AcDbEntity
  8
0
100
AcDbLine
 62
2
  6
CONTINUOUS
 10
12.2550783251
 20
1.9777574596
 11
12.2546663251
 21
1.9754814596
  0
LINE
  5
6E1
100
AcDbEntity
  8
0
100
AcDbLine
 62
2
  6
CONTINUOUS
 10
12.3894383251
 20
1.9509814596
 11
12.3898613251
 21
1.9532874596
  0
LINE
  5
6E2
100
AcDbEntity
  8
0
100
AcDbLine
 62
2
  6
CONTINUOUS
 10
12.1649293251
 20
2.0667004596
 11
12.1645043251
 21
2.0644254596
  0
LINE
  5
6E3
100
AcDbEntity
  8
0
100
AcDbLine
 62
2
  6
CONTINUOUS
 10
12.2210783251
 20
1.9800424596
 11
12.2214253251
 21
1.9818944596
  0
LINE
  5
6E4
100
AcDbEntity
  8
0
100
AcDbLine
 62
2
  6
CONTINUOUS
 10
12.2461313251
 20
1.9710134596
 11
12.2465773251
 21
1.9733594596
  0
LINE
  5
6E5
100
AcDbEntity
  8
0
100
AcDbLine
 62
2
  6
CONTINUOUS
 10
12.2551053251
 20
2.0813544596
 11
12.2556353251
 21
2.0840844596
  0
LINE
  5
6E6
100
AcDbEntity
  8
0
100
AcDbLine
 62
2
  6
CONTINUOUS
 10
12.2456883251
 20
1.9687754596
 11
12.2461313251
 21
1.9710134596
  0
LINE
  5
6E7
100
AcDbEntity
  8
0
100
AcDbLine
 62
2
  6
CONTINUOUS
 10
12.3778893251
 20
2.0174494596
 11
12.3783753251
 21
2.0198644596
  0
LINE
  5
6E8
100
AcDbEntity
  8
0
100
AcDbLine
 62
2
  6
CONTINUOUS
 10
12.1427073251
 20
1.9915314596
 11
12.1422193251
 21
1.9891154596
  0
LINE
  5
6E9
100
AcDbEntity
  8
0
100
AcDbLine
 62
2
  6
CONTINUOUS
 10
12.2452233251
 20
1.9664804596
 11
12.2456883251
 21
1.9687754596
  0
LINE
  5
6EA
100
AcDbEntity
  8
0
100
AcDbLine
 62
2
  6
CONTINUOUS
 10
12.2810493251
 20
2.0646974596
 11
12.2815223251
 21
2.0670114596
  0
LINE
  5
6EB
100
AcDbEntity
  8
0
100
AcDbLine
 62
2
  6
CONTINUOUS
 10
12.2330813251
 20
2.1423244596
 11
12.2335333251
 21
2.1445284596
  0
LINE
  5
6EC
100
AcDbEntity
  8
0
100
AcDbLine
 62
2
  6
CONTINUOUS
 10
12.3628133251
 20
1.9413034596
 11
12.3633053251
 21
1.9436864596
  0
LINE
  5
6ED
100
AcDbEntity
  8
0
100
AcDbLine
 62
2
  6
CONTINUOUS
 10
12.2875173251
 20
1.8666584596
 11
12.2870613251
 21
1.8644514596
  0
LINE
  5
6EE
100
AcDbEntity
  8
0
100
AcDbLine
 62
2
  6
CONTINUOUS
 10
12.2205843251
 20
1.9776644596
 11
12.2210783251
 21
1.9800424596
  0
LINE
  5
6EF
100
AcDbEntity
  8
0
100
AcDbLine
 62
2
  6
CONTINUOUS
 10
12.2447353251
 20
1.9641384596
 11
12.2452233251
 21
1.9664804596
  0
LINE
  5
6F0
100
AcDbEntity
  8
0
100
AcDbLine
 62
2
  6
CONTINUOUS
 10
12.2294113251
 20
2.0793334596
 11
12.2298823251
 21
2.0815684596
  0
LINE
  5
6F1
100
AcDbEntity
  8
0
100
AcDbLine
 62
2
  6
CONTINUOUS
 10
12.2555423251
 20
1.9799484596
 11
12.2550783251
 21
1.9777574596
  0
LINE
  5
6F2
100
AcDbEntity
  8
0
100
AcDbLine
 62
2
  6
CONTINUOUS
 10
12.2853943251
 20
1.9799154596
 11
12.2848753251
 21
1.9774654596
  0
LINE
  5
6F3
100
AcDbEntity
  8
0
100
AcDbLine
 62
2
  6
CONTINUOUS
 10
12.1316373251
 20
2.0602094596
 11
12.1311603251
 21
2.0579994596
  0
LINE
  5
6F4
100
AcDbEntity
  8
0
100
AcDbLine
 62
2
  6
CONTINUOUS
 10
12.1538303251
 20
1.9472774596
 11
12.1533213251
 21
1.9449274596
  0
LINE
  5
6F5
100
AcDbEntity
  8
0
100
AcDbLine
 62
2
  6
CONTINUOUS
 10
12.3889593251
 20
1.9487724596
 11
12.3894383251
 21
1.9509814596
  0
LINE
  5
6F6
100
AcDbEntity
  8
0
100
AcDbLine
 62
2
  6
CONTINUOUS
 10
12.2442273251
 20
1.9618044596
 11
12.2447353251
 21
1.9641384596
  0
LINE
  5
6F7
100
AcDbEntity
  8
0
100
AcDbLine
 62
2
  6
CONTINUOUS
 10
12.2671443251
 20
2.0497174596
 11
12.2666203251
 21
2.0473534596
  0
LINE
  5
6F8
100
AcDbEntity
  8
0
100
AcDbLine
 62
2
  6
CONTINUOUS
 10
12.2298823251
 20
2.0815684596
 11
12.2304033251
 21
2.0838904596
  0
LINE
  5
6F9
100
AcDbEntity
  8
0
100
AcDbLine
 62
2
  6
CONTINUOUS
 10
12.2437123251
 20
1.9595304596
 11
12.2442273251
 21
1.9618044596
  0
LINE
  5
6FA
100
AcDbEntity
  8
0
100
AcDbLine
 62
2
  6
CONTINUOUS
 10
12.1870473251
 20
2.0621754596
 11
12.1865433251
 21
2.0599504596
  0
LINE
  5
6FB
100
AcDbEntity
  8
0
100
AcDbLine
 62
2
  6
CONTINUOUS
 10
12.3366293251
 20
1.9495714596
 11
12.3361063251
 21
1.9472794596
  0
LINE
  5
6FC
100
AcDbEntity
  8
0
100
AcDbLine
 62
2
  6
CONTINUOUS
 10
12.1654613251
 20
2.0690244596
 11
12.1649293251
 21
2.0667004596
  0
LINE
  5
6FD
100
AcDbEntity
  8
0
100
AcDbLine
 62
2
  6
CONTINUOUS
 10
12.2431993251
 20
1.9573724596
 11
12.2437123251
 21
1.9595304596
  0
LINE
  5
6FE
100
AcDbEntity
  8
0
100
AcDbLine
 62
2
  6
CONTINUOUS
 10
12.2560573251
 20
1.9821034596
 11
12.2555423251
 21
1.9799484596
  0
LINE
  5
6FF
100
AcDbEntity
  8
0
100
AcDbLine
 62
2
  6
CONTINUOUS
 10
12.2916653251
 20
1.9742264596
 11
12.2911273251
 21
1.9720334596
  0
LINE
  5
700
100
AcDbEntity
  8
0
100
AcDbLine
 62
2
  6
CONTINUOUS
 10
12.2199543251
 20
1.9751194596
 11
12.2205843251
 21
1.9776644596
  0
LINE
  5
701
100
AcDbEntity
  8
0
100
AcDbLine
 62
2
  6
CONTINUOUS
 10
12.2859753251
 20
1.9822564596
 11
12.2853943251
 21
1.9799154596
  0
LINE
  5
702
100
AcDbEntity
  8
0
100
AcDbLine
 62
2
  6
CONTINUOUS
 10
12.2815223251
 20
2.0670114596
 11
12.2821053251
 21
2.0692954596
  0
LINE
  5
703
100
AcDbEntity
  8
0
100
AcDbLine
 62
2
  6
CONTINUOUS
 10
12.2426353251
 20
1.9551724596
 11
12.2431993251
 21
1.9573724596
  0
LINE
  5
704
100
AcDbEntity
  8
0
100
AcDbLine
 62
2
  6
CONTINUOUS
 10
12.2544773251
 20
2.0789224596
 11
12.2551053251
 21
2.0813544596
  0
LINE
  5
705
100
AcDbEntity
  8
0
100
AcDbLine
 62
2
  6
CONTINUOUS
 10
12.1321783251
 20
2.0622984596
 11
12.1316373251
 21
2.0602094596
  0
LINE
  5
706
100
AcDbEntity
  8
0
100
AcDbLine
 62
2
  6
CONTINUOUS
 10
12.3884173251
 20
1.9466824596
 11
12.3889593251
 21
1.9487724596
  0
LINE
  5
707
100
AcDbEntity
  8
0
100
AcDbLine
 62
2
  6
CONTINUOUS
 10
12.3079753251
 20
2.0662124596
 11
12.3073763251
 21
2.0639424596
  0
LINE
  5
708
100
AcDbEntity
  8
0
100
AcDbLine
 62
2
  6
CONTINUOUS
 10
12.2566313251
 20
1.9842684596
 11
12.2560573251
 21
1.9821034596
  0
LINE
  5
709
100
AcDbEntity
  8
0
100
AcDbLine
 62
2
  6
CONTINUOUS
 10
12.3254733251
 20
1.9465284596
 11
12.3260953251
 21
1.9488664596
  0
LINE
  5
70A
100
AcDbEntity
  8
0
100
AcDbLine
 62
2
  6
CONTINUOUS
 10
12.3622043251
 20
1.9390344596
 11
12.3628133251
 21
1.9413034596
  0
LINE
  5
70B
100
AcDbEntity
  8
0
100
AcDbLine
 62
2
  6
CONTINUOUS
 10
12.1660703251
 20
2.0712854596
 11
12.1654613251
 21
2.0690244596
  0
LINE
  5
70C
100
AcDbEntity
  8
0
100
AcDbLine
 62
2
  6
CONTINUOUS
 10
12.3445693251
 20
2.0747324596
 11
12.3439453251
 21
2.0724264596
  0
LINE
  5
70D
100
AcDbEntity
  8
0
100
AcDbLine
 62
2
  6
CONTINUOUS
 10
12.2420153251
 20
1.9529764596
 11
12.2426353251
 21
1.9551724596
  0
LINE
  5
70E
100
AcDbEntity
  8
0
100
AcDbLine
 62
2
  6
CONTINUOUS
 10
12.2572343251
 20
1.9863894596
 11
12.2566313251
 21
1.9842684596
  0
LINE
  5
70F
100
AcDbEntity
  8
0
100
AcDbLine
 62
2
  6
CONTINUOUS
 10
12.1544853251
 20
1.9495474596
 11
12.1538303251
 21
1.9472774596
  0
LINE
  5
710
100
AcDbEntity
  8
0
100
AcDbLine
 62
2
  6
CONTINUOUS
 10
12.1834523251
 20
1.9445884596
 11
12.1828093251
 21
1.9423694596
  0
LINE
  5
711
100
AcDbEntity
  8
0
100
AcDbLine
 62
2
  6
CONTINUOUS
 10
12.2865953251
 20
1.9843934596
 11
12.2859753251
 21
1.9822564596
  0
LINE
  5
712
100
AcDbEntity
  8
0
100
AcDbLine
 62
2
  6
CONTINUOUS
 10
12.2538023251
 20
2.0766014596
 11
12.2544773251
 21
2.0789224596
  0
LINE
  5
713
100
AcDbEntity
  8
0
100
AcDbLine
 62
2
  6
CONTINUOUS
 10
12.2870613251
 20
1.8644514596
 11
12.2864183251
 21
1.8622564596
  0
LINE
  5
714
100
AcDbEntity
  8
0
100
AcDbLine
 62
2
  6
CONTINUOUS
 10
12.2821053251
 20
2.0692954596
 11
12.2827603251
 21
2.0715264596
  0
LINE
  5
715
100
AcDbEntity
  8
0
100
AcDbLine
 62
2
  6
CONTINUOUS
 10
12.2335333251
 20
2.1445284596
 11
12.2341783251
 21
2.1467244596
  0
LINE
  5
716
100
AcDbEntity
  8
0
100
AcDbLine
 62
2
  6
CONTINUOUS
 10
12.2578713251
 20
1.9884734596
 11
12.2572343251
 21
1.9863894596
  0
LINE
  5
717
100
AcDbEntity
  8
0
100
AcDbLine
 62
2
  6
CONTINUOUS
 10
12.2923553251
 20
1.9764614596
 11
12.2916653251
 21
1.9742264596
  0
LINE
  5
718
100
AcDbEntity
  8
0
100
AcDbLine
 62
2
  6
CONTINUOUS
 10
12.2530493251
 20
2.0741634596
 11
12.2538023251
 21
2.0766014596
  0
LINE
  5
719
100
AcDbEntity
  8
0
100
AcDbLine
 62
2
  6
CONTINUOUS
 10
12.2137563251
 20
2.0604894596
 11
12.2129833251
 21
2.0580074596
  0
LINE
  5
71A
100
AcDbEntity
  8
0
100
AcDbLine
 62
2
  6
CONTINUOUS
 10
12.2129833251
 20
2.0580074596
 11
12.2122833251
 21
2.0557734596
  0
LINE
  5
71B
100
AcDbEntity
  8
0
100
AcDbLine
 62
2
  6
CONTINUOUS
 10
12.2192093251
 20
1.9727424596
 11
12.2199543251
 21
1.9751194596
  0
LINE
  5
71C
100
AcDbEntity
  8
0
100
AcDbLine
 62
2
  6
CONTINUOUS
 10
12.1422193251
 20
1.9891154596
 11
12.1415073251
 21
1.9868484596
  0
LINE
  5
71D
100
AcDbEntity
  8
0
100
AcDbLine
 62
2
  6
CONTINUOUS
 10
12.3783753251
 20
2.0198644596
 11
12.3790883251
 21
2.0221334596
  0
LINE
  5
71E
100
AcDbEntity
  8
0
100
AcDbLine
 62
2
  6
CONTINUOUS
 10
12.2413573251
 20
1.9508994596
 11
12.2420153251
 21
1.9529764596
  0
LINE
  5
71F
100
AcDbEntity
  8
0
100
AcDbLine
 62
2
  6
CONTINUOUS
 10
12.1328783251
 20
2.0645044596
 11
12.1321783251
 21
2.0622984596
  0
LINE
  5
720
100
AcDbEntity
  8
0
100
AcDbLine
 62
2
  6
CONTINUOUS
 10
12.3877173251
 20
1.9444774596
 11
12.3884173251
 21
1.9466824596
  0
LINE
  5
721
100
AcDbEntity
  8
0
100
AcDbLine
 62
2
  6
CONTINUOUS
 10
12.2827603251
 20
2.0715264596
 11
12.2834463251
 21
2.0736834596
  0
LINE
  5
722
100
AcDbEntity
  8
0
100
AcDbLine
 62
2
  6
CONTINUOUS
 10
12.1667413251
 20
2.0733924596
 11
12.1660703251
 21
2.0712854596
  0
LINE
  5
723
100
AcDbEntity
  8
0
100
AcDbLine
 62
2
  6
CONTINUOUS
 10
12.2522653251
 20
2.0717244596
 11
12.2530493251
 21
2.0741634596
  0
LINE
  5
724
100
AcDbEntity
  8
0
100
AcDbLine
 62
2
  6
CONTINUOUS
 10
12.3614873251
 20
1.9368144596
 11
12.3622043251
 21
1.9390344596
  0
LINE
  5
725
100
AcDbEntity
  8
0
100
AcDbLine
 62
2
  6
CONTINUOUS
 10
12.3182403251
 20
2.0769984596
 11
12.3190033251
 21
2.0793374596
  0
LINE
  5
726
100
AcDbEntity
  8
0
100
AcDbLine
 62
2
  6
CONTINUOUS
 10
12.1908063251
 20
2.0732784596
 11
12.1900473251
 21
2.0709634596
  0
LINE
  5
727
100
AcDbEntity
  8
0
100
AcDbLine
 62
2
  6
CONTINUOUS
 10
12.1900473251
 20
2.0709634596
 11
12.1893033251
 21
2.0687054596
  0
LINE
  5
728
100
AcDbEntity
  8
0
100
AcDbLine
 62
2
  6
CONTINUOUS
 10
12.2514943251
 20
2.0694024596
 11
12.2522653251
 21
2.0717244596
  0
LINE
  5
729
100
AcDbEntity
  8
0
100
AcDbLine
 62
2
  6
CONTINUOUS
 10
12.2834463251
 20
2.0736834596
 11
12.2841903251
 21
2.0759134596
  0
LINE
  5
72A
100
AcDbEntity
  8
0
100
AcDbLine
 62
2
  6
CONTINUOUS
 10
12.2666203251
 20
2.0473534596
 11
12.2658533251
 21
2.0450604596
  0
LINE
  5
72B
100
AcDbEntity
  8
0
100
AcDbLine
 62
2
  6
CONTINUOUS
 10
12.2507893251
 20
2.0673064596
 11
12.2514943251
 21
2.0694024596
  0
LINE
  5
72C
100
AcDbEntity
  8
0
100
AcDbLine
 62
2
  6
CONTINUOUS
 10
12.1877773251
 20
2.0643414596
 11
12.1870473251
 21
2.0621754596
  0
LINE
  5
72D
100
AcDbEntity
  8
0
100
AcDbLine
 62
2
  6
CONTINUOUS
 10
12.1915203251
 20
2.0753854596
 11
12.1908063251
 21
2.0732784596
  0
LINE
  5
72E
100
AcDbEntity
  8
0
100
AcDbLine
 62
2
  6
CONTINUOUS
 10
12.1893033251
 20
2.0687054596
 11
12.1885883251
 21
2.0665964596
  0
LINE
  5
72F
100
AcDbEntity
  8
0
100
AcDbLine
 62
2
  6
CONTINUOUS
 10
12.2872973251
 20
1.9864614596
 11
12.2865953251
 21
1.9843934596
  0
LINE
  5
730
100
AcDbEntity
  8
0
100
AcDbLine
 62
2
  6
CONTINUOUS
 10
12.2585933251
 20
1.9905984596
 11
12.2578713251
 21
1.9884734596
  0
LINE
  5
731
100
AcDbEntity
  8
0
100
AcDbLine
 62
2
  6
CONTINUOUS
 10
12.2501903251
 20
2.0655554596
 11
12.2507893251
 21
2.0673064596
  0
LINE
  5
732
100
AcDbEntity
  8
0
100
AcDbLine
 62
2
  6
CONTINUOUS
 10
12.2145283251
 20
2.0627054596
 11
12.2137563251
 21
2.0604894596
  0
LINE
  5
733
100
AcDbEntity
  8
0
100
AcDbLine
 62
2
  6
CONTINUOUS
 10
12.1552653251
 20
1.9517824596
 11
12.1544853251
 21
1.9495474596
  0
LINE
  5
734
100
AcDbEntity
  8
0
100
AcDbLine
 62
2
  6
CONTINUOUS
 10
12.2841903251
 20
2.0759134596
 11
12.2849823251
 21
2.0781814596
  0
LINE
  5
735
100
AcDbEntity
  8
0
100
AcDbLine
 62
2
  6
CONTINUOUS
 10
12.3361063251
 20
1.9472794596
 11
12.3353263251
 21
1.9450644596
  0
LINE
  5
736
100
AcDbEntity
  8
0
100
AcDbLine
 62
2
  6
CONTINUOUS
 10
12.2406243251
 20
1.9488324596
 11
12.2413573251
 21
1.9508994596
  0
LINE
  5
737
100
AcDbEntity
  8
0
100
AcDbLine
 62
2
  6
CONTINUOUS
 10
12.2158783251
 20
1.9641214596
 11
12.2166663251
 21
1.9663144596
  0
LINE
  5
738
100
AcDbEntity
  8
0
100
AcDbLine
 62
2
  6
CONTINUOUS
 10
12.3429803251
 20
2.0181264596
 11
12.3422423251
 21
2.0160734596
  0
LINE
  5
739
100
AcDbEntity
  8
0
100
AcDbLine
 62
2
  6
CONTINUOUS
 10
12.1885883251
 20
2.0665964596
 11
12.1877773251
 21
2.0643414596
  0
LINE
  5
73A
100
AcDbEntity
  8
0
100
AcDbLine
 62
2
  6
CONTINUOUS
 10
12.2931583251
 20
1.9786834596
 11
12.2923553251
 21
1.9764614596
  0
LINE
  5
73B
100
AcDbEntity
  8
0
100
AcDbLine
 62
2
  6
CONTINUOUS
 10
12.2150683251
 20
1.9618894596
 11
12.2158783251
 21
1.9641214596
  0
LINE
  5
73C
100
AcDbEntity
  8
0
100
AcDbLine
 62
2
  6
CONTINUOUS
 10
12.2285243251
 20
2.0769234596
 11
12.2294113251
 21
2.0793334596
  0
LINE
  5
73D
100
AcDbEntity
  8
0
100
AcDbLine
 62
2
  6
CONTINUOUS
 10
12.1336513251
 20
2.0665644596
 11
12.1328783251
 21
2.0645044596
  0
LINE
  5
73E
100
AcDbEntity
  8
0
100
AcDbLine
 62
2
  6
CONTINUOUS
 10
12.1387873251
 20
2.0791184596
 11
12.1379943251
 21
2.0770214596
  0
LINE
  5
73F
100
AcDbEntity
  8
0
100
AcDbLine
 62
2
  6
CONTINUOUS
 10
12.2849823251
 20
2.0781814596
 11
12.2857983251
 21
2.0803354596
  0
LINE
  5
740
100
AcDbEntity
  8
0
100
AcDbLine
 62
2
  6
CONTINUOUS
 10
12.1923233251
 20
2.0774994596
 11
12.1915203251
 21
2.0753854596
  0
LINE
  5
741
100
AcDbEntity
  8
0
100
AcDbLine
 62
2
  6
CONTINUOUS
 10
12.1396193251
 20
2.0812964596
 11
12.1387873251
 21
2.0791184596
  0
LINE
  5
742
100
AcDbEntity
  8
0
100
AcDbLine
 62
2
  6
CONTINUOUS
 10
12.2183773251
 20
1.9705744596
 11
12.2192093251
 21
1.9727424596
  0
LINE
  5
743
100
AcDbEntity
  8
0
100
AcDbLine
 62
2
  6
CONTINUOUS
 10
12.2594193251
 20
1.9927424596
 11
12.2585933251
 21
1.9905984596
  0
LINE
  5
744
100
AcDbEntity
  8
0
100
AcDbLine
 62
2
  6
CONTINUOUS
 10
12.1379943251
 20
2.0770214596
 11
12.1372293251
 21
2.0750424596
  0
LINE
  5
745
100
AcDbEntity
  8
0
100
AcDbLine
 62
2
  6
CONTINUOUS
 10
12.2397833251
 20
1.9466604596
 11
12.2406243251
 21
1.9488324596
  0
LINE
  5
746
100
AcDbEntity
  8
0
100
AcDbLine
 62
2
  6
CONTINUOUS
 10
12.1404873251
 20
2.0835174596
 11
12.1396193251
 21
2.0812964596
  0
LINE
  5
747
100
AcDbEntity
  8
0
100
AcDbLine
 62
2
  6
CONTINUOUS
 10
12.2166663251
 20
1.9663144596
 11
12.2175073251
 21
1.9684664596
  0
LINE
  5
748
100
AcDbEntity
  8
0
100
AcDbLine
 62
2
  6
CONTINUOUS
 10
12.1677393251
 20
2.0759034596
 11
12.1667413251
 21
2.0733924596
  0
LINE
  5
749
100
AcDbEntity
  8
0
100
AcDbLine
 62
2
  6
CONTINUOUS
 10
12.1561363251
 20
1.9539634596
 11
12.1552653251
 21
1.9517824596
  0
LINE
  5
74A
100
AcDbEntity
  8
0
100
AcDbLine
 62
2
  6
CONTINUOUS
 10
12.2141903251
 20
1.9597174596
 11
12.2150683251
 21
1.9618894596
  0
LINE
  5
74B
100
AcDbEntity
  8
0
100
AcDbLine
 62
2
  6
CONTINUOUS
 10
12.1372293251
 20
2.0750424596
 11
12.1363383251
 21
2.0728544596
  0
LINE
  5
74C
100
AcDbEntity
  8
0
100
AcDbLine
 62
2
  6
CONTINUOUS
 10
12.1414023251
 20
2.0857474596
 11
12.1404873251
 21
2.0835174596
  0
LINE
  5
74D
100
AcDbEntity
  8
0
100
AcDbLine
 62
2
  6
CONTINUOUS
 10
12.2175073251
 20
1.9684664596
 11
12.2183773251
 21
1.9705744596
  0
LINE
  5
74E
100
AcDbEntity
  8
0
100
AcDbLine
 62
2
  6
CONTINUOUS
 10
12.2388583251
 20
1.9444264596
 11
12.2397833251
 21
1.9466604596
  0
LINE
  5
74F
100
AcDbEntity
  8
0
100
AcDbLine
 62
2
  6
CONTINUOUS
 10
12.1344903251
 20
2.0685754596
 11
12.1336513251
 21
2.0665644596
  0
LINE
  5
750
100
AcDbEntity
  8
0
100
AcDbLine
 62
2
  6
CONTINUOUS
 10
12.1842893251
 20
1.9465744596
 11
12.1834523251
 21
1.9445884596
  0
LINE
  5
751
100
AcDbEntity
  8
0
100
AcDbLine
 62
2
  6
CONTINUOUS
 10
12.2857983251
 20
2.0803354596
 11
12.2866753251
 21
2.0823914596
  0
LINE
  5
752
100
AcDbEntity
  8
0
100
AcDbLine
 62
2
  6
CONTINUOUS
 10
12.1363383251
 20
2.0728544596
 11
12.1353883251
 21
2.0706404596
  0
LINE
  5
753
100
AcDbEntity
  8
0
100
AcDbLine
 62
2
  6
CONTINUOUS
 10
12.1353883251
 20
2.0706404596
 11
12.1344903251
 21
2.0685754596
  0
LINE
  5
754
100
AcDbEntity
  8
0
100
AcDbLine
 62
2
  6
CONTINUOUS
 10
12.1423653251
 20
2.0879474596
 11
12.1414023251
 21
2.0857474596
  0
LINE
  5
755
100
AcDbEntity
  8
0
100
AcDbLine
 62
2
  6
CONTINUOUS
 10
12.1570633251
 20
1.9560604596
 11
12.1561363251
 21
1.9539634596
  0
LINE
  5
756
100
AcDbEntity
  8
0
100
AcDbLine
 62
2
  6
CONTINUOUS
 10
12.1932993251
 20
2.0796604596
 11
12.1923233251
 21
2.0774994596
  0
LINE
  5
757
100
AcDbEntity
  8
0
100
AcDbLine
 62
2
  6
CONTINUOUS
 10
12.1415073251
 20
1.9868484596
 11
12.1406183251
 21
1.9849064596
  0
LINE
  5
758
100
AcDbEntity
  8
0
100
AcDbLine
 62
2
  6
CONTINUOUS
 10
12.1580083251
 20
1.9580504596
 11
12.1570633251
 21
1.9560604596
  0
LINE
  5
759
100
AcDbEntity
  8
0
100
AcDbLine
 62
2
  6
CONTINUOUS
 10
12.1433863251
 20
2.0900834596
 11
12.1423653251
 21
2.0879474596
  0
LINE
  5
75A
100
AcDbEntity
  8
0
100
AcDbLine
 62
2
  6
CONTINUOUS
 10
12.2341783251
 20
2.1467244596
 11
12.2351503251
 21
2.1487424596
  0
LINE
  5
75B
100
AcDbEntity
  8
0
100
AcDbLine
 62
2
  6
CONTINUOUS
 10
12.1687553251
 20
2.0779104596
 11
12.1677393251
 21
2.0759034596
  0
LINE
  5
75C
100
AcDbEntity
  8
0
100
AcDbLine
 62
2
  6
CONTINUOUS
 10
12.1444833251
 20
2.0921484596
 11
12.1433863251
 21
2.0900834596
  0
LINE
  5
75D
100
AcDbEntity
  8
0
100
AcDbLine
 62
2
  6
CONTINUOUS
 10
12.1906653251
 20
2.1396274596
 11
12.1887273251
 21
2.1383864596
  0
LINE
  5
75E
100
AcDbEntity
  8
0
100
AcDbLine
 62
2
  6
CONTINUOUS
 10
12.1925953251
 20
2.1408344596
 11
12.1906653251
 21
2.1396274596
  0
LINE
  5
75F
100
AcDbEntity
  8
0
100
AcDbLine
 62
2
  6
CONTINUOUS
 10
12.1945293251
 20
2.1420064596
 11
12.1925953251
 21
2.1408344596
  0
LINE
  5
760
100
AcDbEntity
  8
0
100
AcDbLine
 62
2
  6
CONTINUOUS
 10
12.1964793251
 20
2.1431544596
 11
12.1945293251
 21
2.1420064596
  0
LINE
  5
761
100
AcDbEntity
  8
0
100
AcDbLine
 62
2
  6
CONTINUOUS
 10
12.2733853251
 20
2.1297124596
 11
12.2715013251
 21
2.1286144596
  0
LINE
  5
762
100
AcDbEntity
  8
0
100
AcDbLine
 62
2
  6
CONTINUOUS
 10
12.2715013251
 20
2.1286144596
 11
12.2695303251
 21
2.1274844596
  0
LINE
  5
763
100
AcDbEntity
  8
0
100
AcDbLine
 62
2
  6
CONTINUOUS
 10
12.1984533251
 20
2.1442784596
 11
12.1964793251
 21
2.1431544596
  0
LINE
  5
764
100
AcDbEntity
  8
0
100
AcDbLine
 62
2
  6
CONTINUOUS
 10
12.2754143251
 20
2.1308604596
 11
12.2733853251
 21
2.1297124596
  0
LINE
  5
765
100
AcDbEntity
  8
0
100
AcDbLine
 62
2
  6
CONTINUOUS
 10
12.3063953251
 20
2.1044174596
 11
12.3083913251
 21
2.1055264596
  0
LINE
  5
766
100
AcDbEntity
  8
0
100
AcDbLine
 62
2
  6
CONTINUOUS
 10
12.2004633251
 20
2.1453874596
 11
12.1984533251
 21
2.1442784596
  0
LINE
  5
767
100
AcDbEntity
  8
0
100
AcDbLine
 62
2
  6
CONTINUOUS
 10
12.2695303251
 20
2.1274844596
 11
12.2674423251
 21
2.1263404596
  0
LINE
  5
768
100
AcDbEntity
  8
0
100
AcDbLine
 62
2
  6
CONTINUOUS
 10
12.2304033251
 20
2.0838904596
 11
12.2285893251
 21
2.0829134596
  0
LINE
  5
769
100
AcDbEntity
  8
0
100
AcDbLine
 62
2
  6
CONTINUOUS
 10
12.2186903251
 20
2.1062674596
 11
12.2166453251
 21
2.1051694596
  0
LINE
  5
76A
100
AcDbEntity
  8
0
100
AcDbLine
 62
2
  6
CONTINUOUS
 10
12.2025213251
 20
2.1464834596
 11
12.2004633251
 21
2.1453874596
  0
LINE
  5
76B
100
AcDbEntity
  8
0
100
AcDbLine
 62
2
  6
CONTINUOUS
 10
12.1988733251
 20
1.9987954596
 11
12.1967553251
 21
1.9976984596
  0
LINE
  5
76C
100
AcDbEntity
  8
0
100
AcDbLine
 62
2
  6
CONTINUOUS
 10
12.2043263251
 20
2.1474134596
 11
12.2025213251
 21
2.1464834596
  0
LINE
  5
76D
100
AcDbEntity
  8
0
100
AcDbLine
 62
2
  6
CONTINUOUS
 10
12.2773623251
 20
2.1318564596
 11
12.2754143251
 21
2.1308604596
  0
LINE
  5
76E
100
AcDbEntity
  8
0
100
AcDbLine
 62
2
  6
CONTINUOUS
 10
12.2674423251
 20
2.1263404596
 11
12.2652963251
 21
2.1252584596
  0
LINE
  5
76F
100
AcDbEntity
  8
0
100
AcDbLine
 62
2
  6
CONTINUOUS
 10
12.1338193251
 20
1.9792454596
 11
12.1316943251
 21
1.9781754596
  0
LINE
  5
770
100
AcDbEntity
  8
0
100
AcDbLine
 62
2
  6
CONTINUOUS
 10
12.2060903251
 20
2.1482924596
 11
12.2043263251
 21
2.1474134596
  0
LINE
  5
771
100
AcDbEntity
  8
0
100
AcDbLine
 62
2
  6
CONTINUOUS
 10
12.2192933251
 20
2.0313094596
 11
12.2171203251
 21
2.0302514596
  0
LINE
  5
772
100
AcDbEntity
  8
0
100
AcDbLine
 62
2
  6
CONTINUOUS
 10
12.3083913251
 20
2.1055264596
 11
12.3104703251
 21
2.1065314596
  0
LINE
  5
773
100
AcDbEntity
  8
0
100
AcDbLine
 62
2
  6
CONTINUOUS
 10
12.2079103251
 20
2.1491634596
 11
12.2060903251
 21
2.1482924596
  0
LINE
  5
774
100
AcDbEntity
  8
0
100
AcDbLine
 62
2
  6
CONTINUOUS
 10
12.2411773251
 20
2.1557364596
 11
12.2434833251
 21
2.1568274596
  0
LINE
  5
775
100
AcDbEntity
  8
0
100
AcDbLine
 62
2
  6
CONTINUOUS
 10
12.3098693251
 20
1.9966214596
 11
12.3077953251
 21
1.9956414596
  0
LINE
  5
776
100
AcDbEntity
  8
0
100
AcDbLine
 62
2
  6
CONTINUOUS
 10
12.2013653251
 20
1.9999704596
 11
12.1988733251
 21
1.9987954596
  0
LINE
  5
777
100
AcDbEntity
  8
0
100
AcDbLine
 62
2
  6
CONTINUOUS
 10
12.3086753251
 20
2.0077294596
 11
12.3066643251
 21
2.0067924596
  0
LINE
  5
778
100
AcDbEntity
  8
0
100
AcDbLine
 62
2
  6
CONTINUOUS
 10
12.2098003251
 20
2.1500214596
 11
12.2079103251
 21
2.1491634596
  0
LINE
  5
779
100
AcDbEntity
  8
0
100
AcDbLine
 62
2
  6
CONTINUOUS
 10
12.2208113251
 20
2.1072234596
 11
12.2186903251
 21
2.1062674596
  0
LINE
  5
77A
100
AcDbEntity
  8
0
100
AcDbLine
 62
2
  6
CONTINUOUS
 10
12.2171203251
 20
2.0302514596
 11
12.2154093251
 21
2.0294804596
  0
LINE
  5
77B
100
AcDbEntity
  8
0
100
AcDbLine
 62
2
  6
CONTINUOUS
 10
12.3242023251
 20
1.9338234596
 11
12.3220513251
 21
1.9328614596
  0
LINE
  5
77C
100
AcDbEntity
  8
0
100
AcDbLine
 62
2
  6
CONTINUOUS
 10
12.2652963251
 20
2.1252584596
 11
12.2630803251
 21
2.1242794596
  0
LINE
  5
77D
100
AcDbEntity
  8
0
100
AcDbLine
 62
2
  6
CONTINUOUS
 10
12.2041563251
 20
2.0011894596
 11
12.2013653251
 21
1.9999704596
  0
LINE
  5
77E
100
AcDbEntity
  8
0
100
AcDbLine
 62
2
  6
CONTINUOUS
 10
12.2794853251
 20
2.1327804596
 11
12.2773623251
 21
2.1318564596
  0
LINE
  5
77F
100
AcDbEntity
  8
0
100
AcDbLine
 62
2
  6
CONTINUOUS
 10
12.2411113251
 20
1.8762024596
 11
12.2432343251
 21
1.8771254596
  0
LINE
  5
780
100
AcDbEntity
  8
0
100
AcDbLine
 62
2
  6
CONTINUOUS
 10
12.3338753251
 20
1.9078584596
 11
12.3359963251
 21
1.9087734596
  0
LINE
  5
781
100
AcDbEntity
  8
0
100
AcDbLine
 62
2
  6
CONTINUOUS
 10
12.2117643251
 20
2.1508654596
 11
12.2098003251
 21
2.1500214596
  0
LINE
  5
782
100
AcDbEntity
  8
0
100
AcDbLine
 62
2
  6
CONTINUOUS
 10
12.3354483251
 20
2.0097734596
 11
12.3333603251
 21
2.0088874596
  0
LINE
  5
783
100
AcDbEntity
  8
0
100
AcDbLine
 62
2
  6
CONTINUOUS
 10
12.2061813251
 20
2.0020304596
 11
12.2041563251
 21
2.0011894596
  0
LINE
  5
784
100
AcDbEntity
  8
0
100
AcDbLine
 62
2
  6
CONTINUOUS
 10
12.2083123251
 20
1.9085404596
 11
12.2104503251
 21
1.9094074596
  0
LINE
  5
785
100
AcDbEntity
  8
0
100
AcDbLine
 62
2
  6
CONTINUOUS
 10
12.3220513251
 20
1.9328614596
 11
12.3198883251
 21
1.9319874596
  0
LINE
  5
786
100
AcDbEntity
  8
0
100
AcDbLine
 62
2
  6
CONTINUOUS
 10
12.2138173251
 20
2.1516934596
 11
12.2117643251
 21
2.1508654596
  0
LINE
  5
787
100
AcDbEntity
  8
0
100
AcDbLine
 62
2
  6
CONTINUOUS
 10
12.3120343251
 20
1.9974944596
 11
12.3098693251
 21
1.9966214596
  0
LINE
  5
788
100
AcDbEntity
  8
0
100
AcDbLine
 62
2
  6
CONTINUOUS
 10
12.2083633251
 20
2.0029084596
 11
12.2061813251
 21
2.0020304596
  0
LINE
  5
789
100
AcDbEntity
  8
0
100
AcDbLine
 62
2
  6
CONTINUOUS
 10
12.3115053251
 20
2.0088684596
 11
12.3086753251
 21
2.0077294596
  0
LINE
  5
78A
100
AcDbEntity
  8
0
100
AcDbLine
 62
2
  6
CONTINUOUS
 10
12.3067773251
 20
1.8572884596
 11
12.3088313251
 21
1.8581144596
  0
LINE
  5
78B
100
AcDbEntity
  8
0
100
AcDbLine
 62
2
  6
CONTINUOUS
 10
12.3317353251
 20
1.9070024596
 11
12.3338753251
 21
1.9078584596
  0
LINE
  5
78C
100
AcDbEntity
  8
0
100
AcDbLine
 62
2
  6
CONTINUOUS
 10
12.2106523251
 20
2.0038094596
 11
12.2083633251
 21
2.0029084596
  0
LINE
  5
78D
100
AcDbEntity
  8
0
100
AcDbLine
 62
2
  6
CONTINUOUS
 10
12.3104703251
 20
2.1065314596
 11
12.3126523251
 21
2.1073824596
  0
LINE
  5
78E
100
AcDbEntity
  8
0
100
AcDbLine
 62
2
  6
CONTINUOUS
 10
12.2130143251
 20
2.0047204596
 11
12.2106523251
 21
2.0038094596
  0
LINE
  5
78F
100
AcDbEntity
  8
0
100
AcDbLine
 62
2
  6
CONTINUOUS
 10
12.2153983251
 20
2.0056274596
 11
12.2130143251
 21
2.0047204596
  0
LINE
  5
790
100
AcDbEntity
  8
0
100
AcDbLine
 62
2
  6
CONTINUOUS
 10
12.2177673251
 20
2.0065184596
 11
12.2153983251
 21
2.0056274596
  0
LINE
  5
791
100
AcDbEntity
  8
0
100
AcDbLine
 62
2
  6
CONTINUOUS
 10
12.2159683251
 20
2.1525004596
 11
12.2138173251
 21
2.1516934596
  0
LINE
  5
792
100
AcDbEntity
  8
0
100
AcDbLine
 62
2
  6
CONTINUOUS
 10
12.2229813251
 20
2.1080374596
 11
12.2208113251
 21
2.1072234596
  0
LINE
  5
793
100
AcDbEntity
  8
0
100
AcDbLine
 62
2
  6
CONTINUOUS
 10
12.3046253251
 20
1.8564814596
 11
12.3067773251
 21
1.8572884596
  0
LINE
  5
794
100
AcDbEntity
  8
0
100
AcDbLine
 62
2
  6
CONTINUOUS
 10
12.3295683251
 20
1.9061944596
 11
12.3317353251
 21
1.9070024596
  0
LINE
  5
795
100
AcDbEntity
  8
0
100
AcDbLine
 62
2
  6
CONTINUOUS
 10
12.2200753251
 20
2.0073764596
 11
12.2177673251
 21
2.0065184596
  0
LINE
  5
796
100
AcDbEntity
  8
0
100
AcDbLine
 62
2
  6
CONTINUOUS
 10
12.2391333251
 20
1.8754694596
 11
12.2411113251
 21
1.8762024596
  0
LINE
  5
797
100
AcDbEntity
  8
0
100
AcDbLine
 62
2
  6
CONTINUOUS
 10
12.2814613251
 20
2.1335104596
 11
12.2794853251
 21
2.1327804596
  0
LINE
  5
798
100
AcDbEntity
  8
0
100
AcDbLine
 62
2
  6
CONTINUOUS
 10
12.2222833251
 20
2.0081904596
 11
12.2200753251
 21
2.0073764596
  0
LINE
  5
799
100
AcDbEntity
  8
0
100
AcDbLine
 62
2
  6
CONTINUOUS
 10
12.2243453251
 20
2.0089474596
 11
12.2222833251
 21
2.0081904596
  0
LINE
  5
79A
100
AcDbEntity
  8
0
100
AcDbLine
 62
2
  6
CONTINUOUS
 10
12.2262203251
 20
2.0096314596
 11
12.2243453251
 21
2.0089474596
  0
LINE
  5
79B
100
AcDbEntity
  8
0
100
AcDbLine
 62
2
  6
CONTINUOUS
 10
12.2575163251
 20
1.8847014596
 11
12.2597933251
 21
1.8855314596
  0
LINE
  5
79C
100
AcDbEntity
  8
0
100
AcDbLine
 62
2
  6
CONTINUOUS
 10
12.2630803251
 20
2.1242794596
 11
12.2608023251
 21
2.1234494596
  0
LINE
  5
79D
100
AcDbEntity
  8
0
100
AcDbLine
 62
2
  6
CONTINUOUS
 10
12.2278663251
 20
2.0102284596
 11
12.2262203251
 21
2.0096314596
  0
LINE
  5
79E
100
AcDbEntity
  8
0
100
AcDbLine
 62
2
  6
CONTINUOUS
 10
12.1752583251
 20
2.0834374596
 11
12.1730933251
 21
2.0826554596
  0
LINE
  5
79F
100
AcDbEntity
  8
0
100
AcDbLine
 62
2
  6
CONTINUOUS
 10
12.3889023251
 20
2.0308064596
 11
12.3911693251
 21
2.0316164596
  0
LINE
  5
7A0
100
AcDbEntity
  8
0
100
AcDbLine
 62
2
  6
CONTINUOUS
 10
12.1316943251
 20
1.9781754596
 11
12.1294263251
 21
1.9773654596
  0
LINE
  5
7A1
100
AcDbEntity
  8
0
100
AcDbLine
 62
2
  6
CONTINUOUS
 10
12.3333603251
 20
2.0088874596
 11
12.3312773251
 21
2.0081504596
  0
LINE
  5
7A2
100
AcDbEntity
  8
0
100
AcDbLine
 62
2
  6
CONTINUOUS
 10
12.2259953251
 20
2.0095674596
 11
12.2278663251
 21
2.0102284596
  0
LINE
  5
7A3
100
AcDbEntity
  8
0
100
AcDbLine
 62
2
  6
CONTINUOUS
 10
12.2434833251
 20
2.1568274596
 11
12.2455723251
 21
2.1575594596
  0
LINE
  5
7A4
100
AcDbEntity
  8
0
100
AcDbLine
 62
2
  6
CONTINUOUS
 10
12.2771103251
 20
1.8521534596
 11
12.2750233251
 21
1.8514224596
  0
LINE
  5
7A5
100
AcDbEntity
  8
0
100
AcDbLine
 62
2
  6
CONTINUOUS
 10
12.3273233251
 20
1.9054124596
 11
12.3295683251
 21
1.9061944596
  0
LINE
  5
7A6
100
AcDbEntity
  8
0
100
AcDbLine
 62
2
  6
CONTINUOUS
 10
12.3023673251
 20
1.8556964596
 11
12.3046253251
 21
1.8564814596
  0
LINE
  5
7A7
100
AcDbEntity
  8
0
100
AcDbLine
 62
2
  6
CONTINUOUS
 10
12.2182283251
 20
2.1532844596
 11
12.2159683251
 21
2.1525004596
  0
LINE
  5
7A8
100
AcDbEntity
  8
0
100
AcDbLine
 62
2
  6
CONTINUOUS
 10
12.2236243251
 20
2.0087464596
 11
12.2259953251
 21
2.0095674596
  0
LINE
  5
7A9
100
AcDbEntity
  8
0
100
AcDbLine
 62
2
  6
CONTINUOUS
 10
12.3142503251
 20
1.9982604596
 11
12.3120343251
 21
1.9974944596
  0
LINE
  5
7AA
100
AcDbEntity
  8
0
100
AcDbLine
 62
2
  6
CONTINUOUS
 10
12.1921383251
 20
1.9333784596
 11
12.1941463251
 21
1.9340684596
  0
LINE
  5
7AB
100
AcDbEntity
  8
0
100
AcDbLine
 62
2
  6
CONTINUOUS
 10
12.2061223251
 20
1.9077894596
 11
12.2083123251
 21
1.9085404596
  0
LINE
  5
7AC
100
AcDbEntity
  8
0
100
AcDbLine
 62
2
  6
CONTINUOUS
 10
12.3198883251
 20
1.9319874596
 11
12.3176763251
 21
1.9312304596
  0
LINE
  5
7AD
100
AcDbEntity
  8
0
100
AcDbLine
 62
2
  6
CONTINUOUS
 10
12.2211853251
 20
2.0079414596
 11
12.2236243251
 21
2.0087464596
  0
LINE
  5
7AE
100
AcDbEntity
  8
0
100
AcDbLine
 62
2
  6
CONTINUOUS
 10
12.2999923251
 20
1.8549384596
 11
12.3023673251
 21
1.8556964596
  0
LINE
  5
7AF
100
AcDbEntity
  8
0
100
AcDbLine
 62
2
  6
CONTINUOUS
 10
12.2206053251
 20
2.1540424596
 11
12.2182283251
 21
2.1532844596
  0
LINE
  5
7B0
100
AcDbEntity
  8
0
100
AcDbLine
 62
2
  6
CONTINUOUS
 10
12.2835473251
 20
2.1341714596
 11
12.2814613251
 21
2.1335104596
  0
LINE
  5
7B1
100
AcDbEntity
  8
0
100
AcDbLine
 62
2
  6
CONTINUOUS
 10
12.3250823251
 20
1.9047024596
 11
12.3273233251
 21
1.9054124596
  0
LINE
  5
7B2
100
AcDbEntity
  8
0
100
AcDbLine
 62
2
  6
CONTINUOUS
 10
12.2370463251
 20
1.8748094596
 11
12.2391333251
 21
1.8754694596
  0
LINE
  5
7B3
100
AcDbEntity
  8
0
100
AcDbLine
 62
2
  6
CONTINUOUS
 10
12.2252033251
 20
2.1087184596
 11
12.2229813251
 21
2.1080374596
  0
LINE
  5
7B4
100
AcDbEntity
  8
0
100
AcDbLine
 62
2
  6
CONTINUOUS
 10
12.3312773251
 20
2.0081504596
 11
12.3290993251
 21
2.0074924596
  0
LINE
  5
7B5
100
AcDbEntity
  8
0
100
AcDbLine
 62
2
  6
CONTINUOUS
 10
12.2186153251
 20
2.0071784596
 11
12.2211853251
 21
2.0079414596
  0
LINE
  5
7B6
100
AcDbEntity
  8
0
100
AcDbLine
 62
2
  6
CONTINUOUS
 10
12.2455723251
 20
2.1575594596
 11
12.2479033251
 21
2.1582504596
  0
LINE
  5
7B7
100
AcDbEntity
  8
0
100
AcDbLine
 62
2
  6
CONTINUOUS
 10
12.2750233251
 20
1.8514224596
 11
12.2726913251
 21
1.8507314596
  0
LINE
  5
7B8
100
AcDbEntity
  8
0
100
AcDbLine
 62
2
  6
CONTINUOUS
 10
12.3164643251
 20
1.9989134596
 11
12.3142503251
 21
1.9982604596
  0
LINE
  5
7B9
100
AcDbEntity
  8
0
100
AcDbLine
 62
2
  6
CONTINUOUS
 10
12.2231073251
 20
2.1547724596
 11
12.2206053251
 21
2.1540424596
  0
LINE
  5
7BA
100
AcDbEntity
  8
0
100
AcDbLine
 62
2
  6
CONTINUOUS
 10
12.3221233251
 20
1.9734114596
 11
12.3243913251
 21
1.9740724596
  0
LINE
  5
7BB
100
AcDbEntity
  8
0
100
AcDbLine
 62
2
  6
CONTINUOUS
 10
12.2974883251
 20
1.8542084596
 11
12.2999923251
 21
1.8549384596
  0
LINE
  5
7BC
100
AcDbEntity
  8
0
100
AcDbLine
 62
2
  6
CONTINUOUS
 10
12.2608023251
 20
2.1234494596
 11
12.2585803251
 21
2.1228064596
  0
LINE
  5
7BD
100
AcDbEntity
  8
0
100
AcDbLine
 62
2
  6
CONTINUOUS
 10
12.2038933251
 20
1.9071454596
 11
12.2061223251
 21
1.9077894596
  0
LINE
  5
7BE
100
AcDbEntity
  8
0
100
AcDbLine
 62
2
  6
CONTINUOUS
 10
12.2597933251
 20
1.8855314596
 11
12.2620153251
 21
1.8861734596
  0
LINE
  5
7BF
100
AcDbEntity
  8
0
100
AcDbLine
 62
2
  6
CONTINUOUS
 10
12.3130313251
 20
2.0093044596
 11
12.3115053251
 21
2.0088684596
  0
LINE
  5
7C0
100
AcDbEntity
  8
0
100
AcDbLine
 62
2
  6
CONTINUOUS
 10
12.3606653251
 20
1.9345894596
 11
12.3614873251
 21
1.9368144596
  0
LINE
  5
7C1
100
AcDbEntity
  8
0
100
AcDbLine
 62
2
  6
CONTINUOUS
 10
12.3869453251
 20
1.9424174596
 11
12.3877173251
 21
1.9444774596
  0
LINE
  5
7C2
100
AcDbEntity
  8
0
100
AcDbLine
 62
2
  6
CONTINUOUS
 10
12.3809773251
 20
1.9276844596
 11
12.3826023251
 21
1.9319594596
  0
LINE
  5
7C3
100
AcDbEntity
  8
0
100
AcDbLine
 62
2
  6
CONTINUOUS
 10
12.3826023251
 20
1.9319594596
 11
12.3833683251
 21
1.9339394596
  0
LINE
  5
7C4
100
AcDbEntity
  8
0
100
AcDbLine
 62
2
  6
CONTINUOUS
 10
12.3245933251
 20
1.9442604596
 11
12.3254733251
 21
1.9465284596
  0
LINE
  5
7C5
100
AcDbEntity
  8
0
100
AcDbLine
 62
2
  6
CONTINUOUS
 10
12.3801073251
 20
1.9254624596
 11
12.3809773251
 21
1.9276844596
  0
LINE
  5
7C6
100
AcDbEntity
  8
0
100
AcDbLine
 62
2
  6
CONTINUOUS
 10
12.3194593251
 20
1.9699284596
 11
12.3202923251
 21
1.9720534596
  0
LINE
  5
7C7
100
AcDbEntity
  8
0
100
AcDbLine
 62
2
  6
CONTINUOUS
 10
12.3439453251
 20
2.0724264596
 11
12.3430493251
 21
2.0701714596
  0
LINE
  5
7C8
100
AcDbEntity
  8
0
100
AcDbLine
 62
2
  6
CONTINUOUS
 10
12.3833683251
 20
1.9339394596
 11
12.3842553251
 21
1.9361264596
  0
LINE
  5
7C9
100
AcDbEntity
  8
0
100
AcDbLine
 62
2
  6
CONTINUOUS
 10
12.2940513251
 20
1.9808674596
 11
12.2931583251
 21
1.9786834596
  0
LINE
  5
7CA
100
AcDbEntity
  8
0
100
AcDbLine
 62
2
  6
CONTINUOUS
 10
12.3108013251
 20
2.0729374596
 11
12.3098763251
 21
2.0706834596
  0
LINE
  5
7CB
100
AcDbEntity
  8
0
100
AcDbLine
 62
2
  6
CONTINUOUS
 10
12.3791933251
 20
1.9232344596
 11
12.3801073251
 21
1.9254624596
  0
LINE
  5
7CC
100
AcDbEntity
  8
0
100
AcDbLine
 62
2
  6
CONTINUOUS
 10
12.3597633251
 20
1.9324044596
 11
12.3606653251
 21
1.9345894596
  0
LINE
  5
7CD
100
AcDbEntity
  8
0
100
AcDbLine
 62
2
  6
CONTINUOUS
 10
12.3088813251
 20
2.0684054596
 11
12.3079753251
 21
2.0662124596
  0
LINE
  5
7CE
100
AcDbEntity
  8
0
100
AcDbLine
 62
2
  6
CONTINUOUS
 10
12.3861053251
 20
1.9404054596
 11
12.3869453251
 21
1.9424174596
  0
LINE
  5
7CF
100
AcDbEntity
  8
0
100
AcDbLine
 62
2
  6
CONTINUOUS
 10
12.3842553251
 20
1.9361264596
 11
12.3852093251
 21
1.9383414596
  0
LINE
  5
7D0
100
AcDbEntity
  8
0
100
AcDbLine
 62
2
  6
CONTINUOUS
 10
12.2379753251
 20
1.9423794596
 11
12.2388583251
 21
1.9444264596
  0
LINE
  5
7D1
100
AcDbEntity
  8
0
100
AcDbLine
 62
2
  6
CONTINUOUS
 10
12.3852093251
 20
1.9383414596
 11
12.3861053251
 21
1.9404054596
  0
LINE
  5
7D2
100
AcDbEntity
  8
0
100
AcDbLine
 62
2
  6
CONTINUOUS
 10
12.3098763251
 20
2.0706834596
 11
12.3088813251
 21
2.0684054596
  0
LINE
  5
7D3
100
AcDbEntity
  8
0
100
AcDbLine
 62
2
  6
CONTINUOUS
 10
12.2881943251
 20
1.9885134596
 11
12.2872973251
 21
1.9864614596
  0
LINE
  5
7D4
100
AcDbEntity
  8
0
100
AcDbLine
 62
2
  6
CONTINUOUS
 10
12.3782283251
 20
1.9210334596
 11
12.3791933251
 21
1.9232344596
  0
LINE
  5
7D5
100
AcDbEntity
  8
0
100
AcDbLine
 62
2
  6
CONTINUOUS
 10
12.2603733251
 20
1.9948924596
 11
12.2594193251
 21
1.9927424596
  0
LINE
  5
7D6
100
AcDbEntity
  8
0
100
AcDbLine
 62
2
  6
CONTINUOUS
 10
12.2370143251
 20
1.9402264596
 11
12.2379753251
 21
1.9423794596
  0
LINE
  5
7D7
100
AcDbEntity
  8
0
100
AcDbLine
 62
2
  6
CONTINUOUS
 10
12.3588083251
 20
1.9302954596
 11
12.3597633251
 21
1.9324044596
  0
LINE
  5
7D8
100
AcDbEntity
  8
0
100
AcDbLine
 62
2
  6
CONTINUOUS
 10
12.3790883251
 20
2.0221334596
 11
12.3799753251
 21
2.0240734596
  0
LINE
  5
7D9
100
AcDbEntity
  8
0
100
AcDbLine
 62
2
  6
CONTINUOUS
 10
12.3353263251
 20
1.9450644596
 11
12.3343533251
 21
1.9429494596
  0
LINE
  5
7DA
100
AcDbEntity
  8
0
100
AcDbLine
 62
2
  6
CONTINUOUS
 10
12.2950373251
 20
1.9829964596
 11
12.2940513251
 21
1.9808674596
  0
LINE
  5
7DB
100
AcDbEntity
  8
0
100
AcDbLine
 62
2
  6
CONTINUOUS
 10
12.2359973251
 20
1.9380334596
 11
12.2370143251
 21
1.9402264596
  0
LINE
  5
7DC
100
AcDbEntity
  8
0
100
AcDbLine
 62
2
  6
CONTINUOUS
 10
12.3430493251
 20
2.0701714596
 11
12.3420573251
 21
2.0680914596
  0
LINE
  5
7DD
100
AcDbEntity
  8
0
100
AcDbLine
 62
2
  6
CONTINUOUS
 10
12.3772083251
 20
1.9188984596
 11
12.3782283251
 21
1.9210334596
  0
LINE
  5
7DE
100
AcDbEntity
  8
0
100
AcDbLine
 62
2
  6
CONTINUOUS
 10
12.2864183251
 20
1.8622564596
 11
12.2854453251
 21
1.8602394596
  0
LINE
  5
7DF
100
AcDbEntity
  8
0
100
AcDbLine
 62
2
  6
CONTINUOUS
 10
12.2349463251
 20
1.9358634596
 11
12.2359973251
 21
1.9380334596
  0
LINE
  5
7E0
100
AcDbEntity
  8
0
100
AcDbLine
 62
2
  6
CONTINUOUS
 10
12.2155163251
 20
2.0647384596
 11
12.2145283251
 21
2.0627054596
  0
LINE
  5
7E1
100
AcDbEntity
  8
0
100
AcDbLine
 62
2
  6
CONTINUOUS
 10
12.2131663251
 20
1.9576174596
 11
12.2141903251
 21
1.9597174596
  0
LINE
  5
7E2
100
AcDbEntity
  8
0
100
AcDbLine
 62
2
  6
CONTINUOUS
 10
12.1854283251
 20
1.9488874596
 11
12.1842893251
 21
1.9465744596
  0
LINE
  5
7E3
100
AcDbEntity
  8
0
100
AcDbLine
 62
2
  6
CONTINUOUS
 10
12.2866753251
 20
2.0823914596
 11
12.2876633251
 21
2.0843904596
  0
LINE
  5
7E4
100
AcDbEntity
  8
0
100
AcDbLine
 62
2
  6
CONTINUOUS
 10
12.3578193251
 20
1.9283044596
 11
12.3588083251
 21
1.9302954596
  0
LINE
  5
7E5
100
AcDbEntity
  8
0
100
AcDbLine
 62
2
  6
CONTINUOUS
 10
12.1590453251
 20
1.9601264596
 11
12.1580083251
 21
1.9580504596
  0
LINE
  5
7E6
100
AcDbEntity
  8
0
100
AcDbLine
 62
2
  6
CONTINUOUS
 10
12.3420573251
 20
2.0680914596
 11
12.3410883251
 21
2.0661654596
  0
LINE
  5
7E7
100
AcDbEntity
  8
0
100
AcDbLine
 62
2
  6
CONTINUOUS
 10
12.2342423251
 20
2.0428834596
 11
12.2354063251
 21
2.0451914596
  0
LINE
  5
7E8
100
AcDbEntity
  8
0
100
AcDbLine
 62
2
  6
CONTINUOUS
 10
12.2338863251
 20
1.9337794596
 11
12.2349463251
 21
1.9358634596
  0
LINE
  5
7E9
100
AcDbEntity
  8
0
100
AcDbLine
 62
2
  6
CONTINUOUS
 10
12.2614763251
 20
1.9970264596
 11
12.2603733251
 21
1.9948924596
  0
LINE
  5
7EA
100
AcDbEntity
  8
0
100
AcDbLine
 62
2
  6
CONTINUOUS
 10
12.3119003251
 20
2.0750414596
 11
12.3108013251
 21
2.0729374596
  0
LINE
  5
7EB
100
AcDbEntity
  8
0
100
AcDbLine
 62
2
  6
CONTINUOUS
 10
12.3410883251
 20
2.0661654596
 11
12.3401003251
 21
2.0642774596
  0
LINE
  5
7EC
100
AcDbEntity
  8
0
100
AcDbLine
 62
2
  6
CONTINUOUS
 10
12.3761133251
 20
1.9168324596
 11
12.3772083251
 21
1.9188984596
  0
LINE
  5
7ED
100
AcDbEntity
  8
0
100
AcDbLine
 62
2
  6
CONTINUOUS
 10
12.1601173251
 20
1.9621454596
 11
12.1590453251
 21
1.9601264596
  0
LINE
  5
7EE
100
AcDbEntity
  8
0
100
AcDbLine
 62
2
  6
CONTINUOUS
 10
12.3234873251
 20
1.9421904596
 11
12.3245933251
 21
1.9442604596
  0
LINE
  5
7EF
100
AcDbEntity
  8
0
100
AcDbLine
 62
2
  6
CONTINUOUS
 10
12.2330413251
 20
2.0406454596
 11
12.2342423251
 21
2.0428834596
  0
LINE
  5
7F0
100
AcDbEntity
  8
0
100
AcDbLine
 62
2
  6
CONTINUOUS
 10
12.2354063251
 20
2.0451914596
 11
12.2364403251
 21
2.0471134596
  0
LINE
  5
7F1
100
AcDbEntity
  8
0
100
AcDbLine
 62
2
  6
CONTINUOUS
 10
12.2961243251
 20
1.9850114596
 11
12.2950373251
 21
1.9829964596
  0
LINE
  5
7F2
100
AcDbEntity
  8
0
100
AcDbLine
 62
2
  6
CONTINUOUS
 10
12.2328393251
 20
1.9318424596
 11
12.2338863251
 21
1.9337794596
  0
LINE
  5
7F3
100
AcDbEntity
  8
0
100
AcDbLine
 62
2
  6
CONTINUOUS
 10
12.2167503251
 20
2.0670194596
 11
12.2155163251
 21
2.0647384596
  0
LINE
  5
7F4
100
AcDbEntity
  8
0
100
AcDbLine
 62
2
  6
CONTINUOUS
 10
12.2658533251
 20
2.0450604596
 11
12.2647183251
 21
2.0429794596
  0
LINE
  5
7F5
100
AcDbEntity
  8
0
100
AcDbLine
 62
2
  6
CONTINUOUS
 10
12.3566713251
 20
1.9262034596
 11
12.3578193251
 21
1.9283044596
  0
LINE
  5
7F6
100
AcDbEntity
  8
0
100
AcDbLine
 62
2
  6
CONTINUOUS
 10
12.1944633251
 20
2.0817874596
 11
12.1932993251
 21
2.0796604596
  0
LINE
  5
7F7
100
AcDbEntity
  8
0
100
AcDbLine
 62
2
  6
CONTINUOUS
 10
12.1865263251
 20
1.9508834596
 11
12.1854283251
 21
1.9488874596
  0
LINE
  5
7F8
100
AcDbEntity
  8
0
100
AcDbLine
 62
2
  6
CONTINUOUS
 10
12.2501903251
 20
2.0655554596
 11
12.2495223251
 21
2.0643794596
  0
LINE
  5
7F9
100
AcDbEntity
  8
0
100
AcDbLine
 62
2
  6
CONTINUOUS
 10
12.1612233251
 20
1.9640894596
 11
12.1601173251
 21
1.9621454596
  0
LINE
  5
7FA
100
AcDbEntity
  8
0
100
AcDbLine
 62
2
  6
CONTINUOUS
 10
12.2876633251
 20
2.0843904596
 11
12.2888063251
 21
2.0863884596
  0
LINE
  5
7FB
100
AcDbEntity
  8
0
100
AcDbLine
 62
2
  6
CONTINUOUS
 10
12.2120143251
 20
1.9556214596
 11
12.2131663251
 21
1.9576174596
  0
LINE
  5
7FC
100
AcDbEntity
  8
0
100
AcDbLine
 62
2
  6
CONTINUOUS
 10
12.2180323251
 20
2.0692394596
 11
12.2167503251
 21
2.0670194596
  0
LINE
  5
7FD
100
AcDbEntity
  8
0
100
AcDbLine
 62
2
  6
CONTINUOUS
 10
12.2894853251
 20
1.9907384596
 11
12.2881943251
 21
1.9885134596
  0
LINE
  5
7FE
100
AcDbEntity
  8
0
100
AcDbLine
 62
2
  6
CONTINUOUS
 10
12.3401003251
 20
2.0642774596
 11
12.3388413251
 21
2.0621084596
  0
LINE
  5
7FF
100
AcDbEntity
  8
0
100
AcDbLine
 62
2
  6
CONTINUOUS
 10
12.2273763251
 20
2.0749484596
 11
12.2285243251
 21
2.0769234596
  0
LINE
  5
800
100
AcDbEntity
  8
0
100
AcDbLine
 62
2
  6
CONTINUOUS
 10
12.3749533251
 20
1.9148514596
 11
12.3761133251
 21
1.9168324596
  0
LINE
  5
801
100
AcDbEntity
  8
0
100
AcDbLine
 62
2
  6
CONTINUOUS
 10
12.1456443251
 20
2.0941294596
 11
12.1444833251
 21
2.0921484596
  0
LINE
  5
802
100
AcDbEntity
  8
0
100
AcDbLine
 62
2
  6
CONTINUOUS
 10
12.3343533251
 20
1.9429494596
 11
12.3331753251
 21
1.9409514596
  0
LINE
  5
803
100
AcDbEntity
  8
0
100
AcDbLine
 62
2
  6
CONTINUOUS
 10
12.2315593251
 20
1.9296854596
 11
12.2328393251
 21
1.9318424596
  0
LINE
  5
804
100
AcDbEntity
  8
0
100
AcDbLine
 62
2
  6
CONTINUOUS
 10
12.2192893251
 20
2.0713164596
 11
12.2180323251
 21
2.0692394596
  0
LINE
  5
805
100
AcDbEntity
  8
0
100
AcDbLine
 62
2
  6
CONTINUOUS
 10
12.2627553251
 20
1.9991384596
 11
12.2614763251
 21
1.9970264596
  0
LINE
  5
806
100
AcDbEntity
  8
0
100
AcDbLine
 62
2
  6
CONTINUOUS
 10
12.1624103251
 20
1.9660304596
 11
12.1612233251
 21
1.9640894596
  0
LINE
  5
807
100
AcDbEntity
  8
0
100
AcDbLine
 62
2
  6
CONTINUOUS
 10
12.1877053251
 20
1.9528104596
 11
12.1865263251
 21
1.9508834596
  0
LINE
  5
808
100
AcDbEntity
  8
0
100
AcDbLine
 62
2
  6
CONTINUOUS
 10
12.3554243251
 20
1.9241734596
 11
12.3566713251
 21
1.9262034596
  0
LINE
  5
809
100
AcDbEntity
  8
0
100
AcDbLine
 62
2
  6
CONTINUOUS
 10
12.2205303251
 20
2.0733194596
 11
12.2192893251
 21
2.0713164596
  0
LINE
  5
80A
100
AcDbEntity
  8
0
100
AcDbLine
 62
2
  6
CONTINUOUS
 10
12.3388413251
 20
2.0621084596
 11
12.3376843251
 21
2.0602644596
  0
LINE
  5
80B
100
AcDbEntity
  8
0
100
AcDbLine
 62
2
  6
CONTINUOUS
 10
12.1957233251
 20
2.0837724596
 11
12.1944633251
 21
2.0817874596
  0
LINE
  5
80C
100
AcDbEntity
  8
0
100
AcDbLine
 62
2
  6
CONTINUOUS
 10
12.2854453251
 20
1.8602394596
 11
12.2843393251
 21
1.8584994596
  0
LINE
  5
80D
100
AcDbEntity
  8
0
100
AcDbLine
 62
2
  6
CONTINUOUS
 10
12.1468593251
 20
2.0960404596
 11
12.1456443251
 21
2.0941294596
  0
LINE
  5
80E
100
AcDbEntity
  8
0
100
AcDbLine
 62
2
  6
CONTINUOUS
 10
12.2351503251
 20
2.1487424596
 11
12.2362573251
 21
2.1504824596
  0
LINE
  5
80F
100
AcDbEntity
  8
0
100
AcDbLine
 62
2
  6
CONTINUOUS
 10
12.3737363251
 20
1.9129394596
 11
12.3749533251
 21
1.9148514596
  0
LINE
  5
810
100
AcDbEntity
  8
0
100
AcDbLine
 62
2
  6
CONTINUOUS
 10
12.2218243251
 20
2.0753514596
 11
12.2205303251
 21
2.0733194596
  0
LINE
  5
811
100
AcDbEntity
  8
0
100
AcDbLine
 62
2
  6
CONTINUOUS
 10
12.2107633251
 20
1.9536604596
 11
12.2120143251
 21
1.9556214596
  0
LINE
  5
812
100
AcDbEntity
  8
0
100
AcDbLine
 62
2
  6
CONTINUOUS
 10
12.1698413251
 20
2.0796104596
 11
12.1687553251
 21
2.0779104596
  0
LINE
  5
813
100
AcDbEntity
  8
0
100
AcDbLine
 62
2
  6
CONTINUOUS
 10
12.2888063251
 20
2.0863884596
 11
12.2900553251
 21
2.0883344596
  0
LINE
  5
814
100
AcDbEntity
  8
0
100
AcDbLine
 62
2
  6
CONTINUOUS
 10
12.2973513251
 20
1.9869154596
 11
12.2961243251
 21
1.9850114596
  0
LINE
  5
815
100
AcDbEntity
  8
0
100
AcDbLine
 62
2
  6
CONTINUOUS
 10
12.3169563251
 20
2.0750114596
 11
12.3182403251
 21
2.0769984596
  0
LINE
  5
816
100
AcDbEntity
  8
0
100
AcDbLine
 62
2
  6
CONTINUOUS
 10
12.1636803251
 20
1.9679724596
 11
12.1624103251
 21
1.9660304596
  0
LINE
  5
817
100
AcDbEntity
  8
0
100
AcDbLine
 62
2
  6
CONTINUOUS
 10
12.3132243251
 20
2.0770564596
 11
12.3119003251
 21
2.0750414596
  0
LINE
  5
818
100
AcDbEntity
  8
0
100
AcDbLine
 62
2
  6
CONTINUOUS
 10
12.2316483251
 20
2.0385284596
 11
12.2330413251
 21
2.0406454596
  0
LINE
  5
819
100
AcDbEntity
  8
0
100
AcDbLine
 62
2
  6
CONTINUOUS
 10
12.2081573251
 20
1.9497034596
 11
12.2107633251
 21
1.9536604596
  0
LINE
  5
81A
100
AcDbEntity
  8
0
100
AcDbLine
 62
2
  6
CONTINUOUS
 10
12.2495223251
 20
2.0643794596
 11
12.2480843251
 21
2.0622014596
  0
LINE
  5
81B
100
AcDbEntity
  8
0
100
AcDbLine
 62
2
  6
CONTINUOUS
 10
12.2068413251
 20
1.9477244596
 11
12.2081573251
 21
1.9497034596
  0
LINE
  5
81C
100
AcDbEntity
  8
0
100
AcDbLine
 62
2
  6
CONTINUOUS
 10
12.2302013251
 20
1.9276524596
 11
12.2315593251
 21
1.9296854596
  0
LINE
  5
81D
100
AcDbEntity
  8
0
100
AcDbLine
 62
2
  6
CONTINUOUS
 10
12.2232183251
 20
2.0774344596
 11
12.2218243251
 21
2.0753514596
  0
LINE
  5
81E
100
AcDbEntity
  8
0
100
AcDbLine
 62
2
  6
CONTINUOUS
 10
12.2218143251
 20
2.0667364596
 11
12.2231423251
 21
2.0687154596
  0
LINE
  5
81F
100
AcDbEntity
  8
0
100
AcDbLine
 62
2
  6
CONTINUOUS
 10
12.2231423251
 20
2.0687154596
 11
12.2245213251
 21
2.0707644596
  0
LINE
  5
820
100
AcDbEntity
  8
0
100
AcDbLine
 62
2
  6
CONTINUOUS
 10
12.3376843251
 20
2.0602644596
 11
12.3363353251
 21
2.0582604596
  0
LINE
  5
821
100
AcDbEntity
  8
0
100
AcDbLine
 62
2
  6
CONTINUOUS
 10
12.2055543251
 20
1.9458194596
 11
12.2068413251
 21
1.9477244596
  0
LINE
  5
822
100
AcDbEntity
  8
0
100
AcDbLine
 62
2
  6
CONTINUOUS
 10
12.3724703251
 20
1.9110714596
 11
12.3737363251
 21
1.9129394596
  0
LINE
  5
823
100
AcDbEntity
  8
0
100
AcDbLine
 62
2
  6
CONTINUOUS
 10
12.1481263251
 20
2.0979094596
 11
12.1468593251
 21
2.0960404596
  0
LINE
  5
824
100
AcDbEntity
  8
0
100
AcDbLine
 62
2
  6
CONTINUOUS
 10
12.2259473251
 20
2.0728414596
 11
12.2273763251
 21
2.0749484596
  0
LINE
  5
825
100
AcDbEntity
  8
0
100
AcDbLine
 62
2
  6
CONTINUOUS
 10
12.3422423251
 20
2.0160734596
 11
12.3409643251
 21
2.0142014596
  0
LINE
  5
826
100
AcDbEntity
  8
0
100
AcDbLine
 62
2
  6
CONTINUOUS
 10
12.2205293251
 20
2.0648584596
 11
12.2218143251
 21
2.0667364596
  0
LINE
  5
827
100
AcDbEntity
  8
0
100
AcDbLine
 62
2
  6
CONTINUOUS
 10
12.2245213251
 20
2.0707644596
 11
12.2259473251
 21
2.0728414596
  0
LINE
  5
828
100
AcDbEntity
  8
0
100
AcDbLine
 62
2
  6
CONTINUOUS
 10
12.1970853251
 20
2.0857504596
 11
12.1957233251
 21
2.0837724596
  0
LINE
  5
829
100
AcDbEntity
  8
0
100
AcDbLine
 62
2
  6
CONTINUOUS
 10
12.1890783251
 20
1.9547994596
 11
12.1877053251
 21
1.9528104596
  0
LINE
  5
82A
100
AcDbEntity
  8
0
100
AcDbLine
 62
2
  6
CONTINUOUS
 10
12.1649483251
 20
1.9698084596
 11
12.1636803251
 21
1.9679724596
  0
LINE
  5
82B
100
AcDbEntity
  8
0
100
AcDbLine
 62
2
  6
CONTINUOUS
 10
12.2604893251
 20
2.0376744596
 11
12.2592363251
 21
2.0358654596
  0
LINE
  5
82C
100
AcDbEntity
  8
0
100
AcDbLine
 62
2
  6
CONTINUOUS
 10
12.2592363251
 20
2.0358654596
 11
12.2579393251
 21
2.0340024596
  0
LINE
  5
82D
100
AcDbEntity
  8
0
100
AcDbLine
 62
2
  6
CONTINUOUS
 10
12.2907883251
 20
1.9926064596
 11
12.2894853251
 21
1.9907384596
  0
LINE
  5
82E
100
AcDbEntity
  8
0
100
AcDbLine
 62
2
  6
CONTINUOUS
 10
12.2900553251
 20
2.0883344596
 11
12.2913873251
 21
2.0902394596
  0
LINE
  5
82F
100
AcDbEntity
  8
0
100
AcDbLine
 62
2
  6
CONTINUOUS
 10
12.2041773251
 20
1.9438554596
 11
12.2055543251
 21
1.9458194596
  0
LINE
  5
830
100
AcDbEntity
  8
0
100
AcDbLine
 62
2
  6
CONTINUOUS
 10
12.3541213251
 20
1.9223274596
 11
12.3554243251
 21
1.9241734596
  0
LINE
  5
831
100
AcDbEntity
  8
0
100
AcDbLine
 62
2
  6
CONTINUOUS
 10
12.2642753251
 20
2.0012854596
 11
12.2627553251
 21
1.9991384596
  0
LINE
  5
832
100
AcDbEntity
  8
0
100
AcDbLine
 62
2
  6
CONTINUOUS
 10
12.1494383251
 20
2.0997614596
 11
12.1481263251
 21
2.0979094596
  0
LINE
  5
833
100
AcDbEntity
  8
0
100
AcDbLine
 62
2
  6
CONTINUOUS
 10
12.3711583251
 20
1.9092194596
 11
12.3724703251
 21
1.9110714596
  0
LINE
  5
834
100
AcDbEntity
  8
0
100
AcDbLine
 62
2
  6
CONTINUOUS
 10
12.2362573251
 20
2.1504824596
 11
12.2377633251
 21
2.1526064596
  0
LINE
  5
835
100
AcDbEntity
  8
0
100
AcDbLine
 62
2
  6
CONTINUOUS
 10
12.2843393251
 20
1.8584994596
 11
12.2828303251
 21
1.8563734596
  0
LINE
  5
836
100
AcDbEntity
  8
0
100
AcDbLine
 62
2
  6
CONTINUOUS
 10
12.2012153251
 20
2.0914974596
 11
12.1997883251
 21
2.0894994596
  0
LINE
  5
837
100
AcDbEntity
  8
0
100
AcDbLine
 62
2
  6
CONTINUOUS
 10
12.1406183251
 20
1.9849064596
 11
12.1393593251
 21
1.9831484596
  0
LINE
  5
838
100
AcDbEntity
  8
0
100
AcDbLine
 62
2
  6
CONTINUOUS
 10
12.3799753251
 20
2.0240734596
 11
12.3812363251
 21
2.0258314596
  0
LINE
  5
839
100
AcDbEntity
  8
0
100
AcDbLine
 62
2
  6
CONTINUOUS
 10
12.1984573251
 20
2.0876574596
 11
12.1970853251
 21
2.0857504596
  0
LINE
  5
83A
100
AcDbEntity
  8
0
100
AcDbLine
 62
2
  6
CONTINUOUS
 10
12.1560303251
 20
2.1088474596
 11
12.1535413251
 21
2.1053884596
  0
LINE
  5
83B
100
AcDbEntity
  8
0
100
AcDbLine
 62
2
  6
CONTINUOUS
 10
12.3645643251
 20
1.9001334596
 11
12.3670533251
 21
1.9035944596
  0
LINE
  5
83C
100
AcDbEntity
  8
0
100
AcDbLine
 62
2
  6
CONTINUOUS
 10
12.1997883251
 20
2.0894994596
 11
12.1984573251
 21
2.0876574596
  0
LINE
  5
83D
100
AcDbEntity
  8
0
100
AcDbLine
 62
2
  6
CONTINUOUS
 10
12.1507903251
 20
2.1016234596
 11
12.1494383251
 21
2.0997614596
  0
LINE
  5
83E
100
AcDbEntity
  8
0
100
AcDbLine
 62
2
  6
CONTINUOUS
 10
12.1535413251
 20
2.1053884596
 11
12.1521833251
 21
2.1035184596
  0
LINE
  5
83F
100
AcDbEntity
  8
0
100
AcDbLine
 62
2
  6
CONTINUOUS
 10
12.1663103251
 20
1.9716794596
 11
12.1649483251
 21
1.9698084596
  0
LINE
  5
840
100
AcDbEntity
  8
0
100
AcDbLine
 62
2
  6
CONTINUOUS
 10
12.3670533251
 20
1.9035944596
 11
12.3684133251
 21
1.9054624596
  0
LINE
  5
841
100
AcDbEntity
  8
0
100
AcDbLine
 62
2
  6
CONTINUOUS
 10
12.3698033251
 20
1.9073584596
 11
12.3711583251
 21
1.9092194596
  0
LINE
  5
842
100
AcDbEntity
  8
0
100
AcDbLine
 62
2
  6
CONTINUOUS
 10
12.1573363251
 20
2.1106364596
 11
12.1560303251
 21
2.1088474596
  0
LINE
  5
843
100
AcDbEntity
  8
0
100
AcDbLine
 62
2
  6
CONTINUOUS
 10
12.3632573251
 20
1.8983454596
 11
12.3645643251
 21
1.9001334596
  0
LINE
  5
844
100
AcDbEntity
  8
0
100
AcDbLine
 62
2
  6
CONTINUOUS
 10
12.3684133251
 20
1.9054624596
 11
12.3698033251
 21
1.9073584596
  0
LINE
  5
845
100
AcDbEntity
  8
0
100
AcDbLine
 62
2
  6
CONTINUOUS
 10
12.2480843251
 20
2.0622014596
 11
12.2464533251
 21
2.0599784596
  0
LINE
  5
846
100
AcDbEntity
  8
0
100
AcDbLine
 62
2
  6
CONTINUOUS
 10
12.1521833251
 20
2.1035184596
 11
12.1507903251
 21
2.1016234596
  0
LINE
  5
847
100
AcDbEntity
  8
0
100
AcDbLine
 62
2
  6
CONTINUOUS
 10
12.3221653251
 20
1.9403924596
 11
12.3234873251
 21
1.9421904596
  0
LINE
  5
848
100
AcDbEntity
  8
0
100
AcDbLine
 62
2
  6
CONTINUOUS
 10
12.3363353251
 20
2.0582604596
 11
12.3349013251
 21
2.0563174596
  0
LINE
  5
849
100
AcDbEntity
  8
0
100
AcDbLine
 62
2
  6
CONTINUOUS
 10
12.2246873251
 20
2.0794234596
 11
12.2232183251
 21
2.0774344596
  0
LINE
  5
84A
100
AcDbEntity
  8
0
100
AcDbLine
 62
2
  6
CONTINUOUS
 10
12.2913873251
 20
2.0902394596
 11
12.2927773251
 21
2.0921204596
  0
LINE
  5
84B
100
AcDbEntity
  8
0
100
AcDbLine
 62
2
  6
CONTINUOUS
 10
12.2025593251
 20
2.0933074596
 11
12.2012153251
 21
2.0914974596
  0
LINE
  5
84C
100
AcDbEntity
  8
0
100
AcDbLine
 62
2
  6
CONTINUOUS
 10
12.3146813251
 20
2.0790164596
 11
12.3132243251
 21
2.0770564596
  0
LINE
  5
84D
100
AcDbEntity
  8
0
100
AcDbLine
 62
2
  6
CONTINUOUS
 10
12.2288713251
 20
1.9258684596
 11
12.2302013251
 21
1.9276524596
  0
LINE
  5
84E
100
AcDbEntity
  8
0
100
AcDbLine
 62
2
  6
CONTINUOUS
 10
12.3618953251
 20
1.8965284596
 11
12.3632573251
 21
1.8983454596
  0
LINE
  5
84F
100
AcDbEntity
  8
0
100
AcDbLine
 62
2
  6
CONTINUOUS
 10
12.1586983251
 20
2.1124514596
 11
12.1573363251
 21
2.1106364596
  0
LINE
  5
850
100
AcDbEntity
  8
0
100
AcDbLine
 62
2
  6
CONTINUOUS
 10
12.2027813251
 20
1.9420024596
 11
12.2041773251
 21
1.9438554596
  0
LINE
  5
851
100
AcDbEntity
  8
0
100
AcDbLine
 62
2
  6
CONTINUOUS
 10
12.2191083251
 20
2.0629754596
 11
12.2205293251
 21
2.0648584596
  0
LINE
  5
852
100
AcDbEntity
  8
0
100
AcDbLine
 62
2
  6
CONTINUOUS
 10
12.2922603251
 20
1.9945494596
 11
12.2907883251
 21
1.9926064596
  0
LINE
  5
853
100
AcDbEntity
  8
0
100
AcDbLine
 62
2
  6
CONTINUOUS
 10
12.2647183251
 20
2.0429794596
 11
12.2634253251
 21
2.0412874596
  0
LINE
  5
854
100
AcDbEntity
  8
0
100
AcDbLine
 62
2
  6
CONTINUOUS
 10
12.2464533251
 20
2.0599784596
 11
12.2451263251
 21
2.0582444596
  0
LINE
  5
855
100
AcDbEntity
  8
0
100
AcDbLine
 62
2
  6
CONTINUOUS
 10
12.1677453251
 20
1.9735464596
 11
12.1663103251
 21
1.9716794596
  0
LINE
  5
856
100
AcDbEntity
  8
0
100
AcDbLine
 62
2
  6
CONTINUOUS
 10
12.2927773251
 20
2.0921204596
 11
12.2942193251
 21
2.0939864596
  0
LINE
  5
857
100
AcDbEntity
  8
0
100
AcDbLine
 62
2
  6
CONTINUOUS
 10
12.2392223251
 20
2.0507154596
 11
12.2375423251
 21
2.0485464596
  0
LINE
  5
858
100
AcDbEntity
  8
0
100
AcDbLine
 62
2
  6
CONTINUOUS
 10
12.2375423251
 20
2.0485464596
 11
12.2360833251
 21
2.0466694596
  0
LINE
  5
859
100
AcDbEntity
  8
0
100
AcDbLine
 62
2
  6
CONTINUOUS
 10
12.2451263251
 20
2.0582444596
 11
12.2436613251
 21
2.0563624596
  0
LINE
  5
85A
100
AcDbEntity
  8
0
100
AcDbLine
 62
2
  6
CONTINUOUS
 10
12.3604673251
 20
1.8946944596
 11
12.3618953251
 21
1.8965284596
  0
LINE
  5
85B
100
AcDbEntity
  8
0
100
AcDbLine
 62
2
  6
CONTINUOUS
 10
12.2987413251
 20
1.9886984596
 11
12.2973513251
 21
1.9869154596
  0
LINE
  5
85C
100
AcDbEntity
  8
0
100
AcDbLine
 62
2
  6
CONTINUOUS
 10
12.1601293251
 20
2.1142854596
 11
12.1586983251
 21
2.1124514596
  0
LINE
  5
85D
100
AcDbEntity
  8
0
100
AcDbLine
 62
2
  6
CONTINUOUS
 10
12.2406303251
 20
2.0525104596
 11
12.2392223251
 21
2.0507154596
  0
LINE
  5
85E
100
AcDbEntity
  8
0
100
AcDbLine
 62
2
  6
CONTINUOUS
 10
12.2436613251
 20
2.0563624596
 11
12.2406303251
 21
2.0525104596
  0
LINE
  5
85F
100
AcDbEntity
  8
0
100
AcDbLine
 62
2
  6
CONTINUOUS
 10
12.1906233251
 20
1.9567614596
 11
12.1890783251
 21
1.9547994596
  0
LINE
  5
860
100
AcDbEntity
  8
0
100
AcDbLine
 62
2
  6
CONTINUOUS
 10
12.3331753251
 20
1.9409514596
 11
12.3317443251
 21
1.9391484596
  0
LINE
  5
861
100
AcDbEntity
  8
0
100
AcDbLine
 62
2
  6
CONTINUOUS
 10
12.2619313251
 20
2.0394894596
 11
12.2604893251
 21
2.0376744596
  0
LINE
  5
862
100
AcDbEntity
  8
0
100
AcDbLine
 62
2
  6
CONTINUOUS
 10
12.2937883251
 20
1.9964664596
 11
12.2922603251
 21
1.9945494596
  0
LINE
  5
863
100
AcDbEntity
  8
0
100
AcDbLine
 62
2
  6
CONTINUOUS
 10
12.2659083251
 20
2.0033304596
 11
12.2642753251
 21
2.0012854596
  0
LINE
  5
864
100
AcDbEntity
  8
0
100
AcDbLine
 62
2
  6
CONTINUOUS
 10
12.2360833251
 20
2.0466694596
 11
12.2347553251
 21
2.0450124596
  0
LINE
  5
865
100
AcDbEntity
  8
0
100
AcDbLine
 62
2
  6
CONTINUOUS
 10
12.2275403251
 20
1.9242104596
 11
12.2288713251
 21
1.9258684596
  0
LINE
  5
866
100
AcDbEntity
  8
0
100
AcDbLine
 62
2
  6
CONTINUOUS
 10
12.3154783251
 20
2.0731794596
 11
12.3169563251
 21
2.0750114596
  0
LINE
  5
867
100
AcDbEntity
  8
0
100
AcDbLine
 62
2
  6
CONTINUOUS
 10
12.2952583251
 20
1.9982764596
 11
12.2937883251
 21
1.9964664596
  0
LINE
  5
868
100
AcDbEntity
  8
0
100
AcDbLine
 62
2
  6
CONTINUOUS
 10
12.1692273251
 20
1.9753704596
 11
12.1677453251
 21
1.9735464596
  0
LINE
  5
869
100
AcDbEntity
  8
0
100
AcDbLine
 62
2
  6
CONTINUOUS
 10
12.3527293251
 20
1.9206154596
 11
12.3541213251
 21
1.9223274596
  0
LINE
  5
86A
100
AcDbEntity
  8
0
100
AcDbLine
 62
2
  6
CONTINUOUS
 10
12.3124593251
 20
2.0694844596
 11
12.3138993251
 21
2.0712494596
  0
LINE
  5
86B
100
AcDbEntity
  8
0
100
AcDbLine
 62
2
  6
CONTINUOUS
 10
12.1616333251
 20
2.1161284596
 11
12.1601293251
 21
2.1142854596
  0
LINE
  5
86C
100
AcDbEntity
  8
0
100
AcDbLine
 62
2
  6
CONTINUOUS
 10
12.3138993251
 20
2.0712494596
 11
12.3154783251
 21
2.0731794596
  0
LINE
  5
86D
100
AcDbEntity
  8
0
100
AcDbLine
 62
2
  6
CONTINUOUS
 10
12.3589603251
 20
1.8928524596
 11
12.3604673251
 21
1.8946944596
  0
LINE
  5
86E
100
AcDbEntity
  8
0
100
AcDbLine
 62
2
  6
CONTINUOUS
 10
12.2248143251
 20
1.9208944596
 11
12.2261723251
 21
1.9225514596
  0
LINE
  5
86F
100
AcDbEntity
  8
0
100
AcDbLine
 62
2
  6
CONTINUOUS
 10
12.2261723251
 20
1.9225514596
 11
12.2275403251
 21
1.9242104596
  0
LINE
  5
870
100
AcDbEntity
  8
0
100
AcDbLine
 62
2
  6
CONTINUOUS
 10
12.2942193251
 20
2.0939864596
 11
12.2957093251
 21
2.0957914596
  0
LINE
  5
871
100
AcDbEntity
  8
0
100
AcDbLine
 62
2
  6
CONTINUOUS
 10
12.2039773251
 20
2.0950234596
 11
12.2025593251
 21
2.0933074596
  0
LINE
  5
872
100
AcDbEntity
  8
0
100
AcDbLine
 62
2
  6
CONTINUOUS
 10
12.2634253251
 20
2.0412874596
 11
12.2619313251
 21
2.0394894596
  0
LINE
  5
873
100
AcDbEntity
  8
0
100
AcDbLine
 62
2
  6
CONTINUOUS
 10
12.2300963251
 20
2.0366694596
 11
12.2316483251
 21
2.0385284596
  0
LINE
  5
874
100
AcDbEntity
  8
0
100
AcDbLine
 62
2
  6
CONTINUOUS
 10
12.2233763251
 20
1.9191774596
 11
12.2248143251
 21
1.9208944596
  0
LINE
  5
875
100
AcDbEntity
  8
0
100
AcDbLine
 62
2
  6
CONTINUOUS
 10
12.3163063251
 20
2.0809484596
 11
12.3146813251
 21
2.0790164596
  0
LINE
  5
876
100
AcDbEntity
  8
0
100
AcDbLine
 62
2
  6
CONTINUOUS
 10
12.2967603251
 20
2.0000624596
 11
12.2952583251
 21
1.9982764596
  0
LINE
  5
877
100
AcDbEntity
  8
0
100
AcDbLine
 62
2
  6
CONTINUOUS
 10
12.2013123251
 20
1.9402594596
 11
12.2027813251
 21
1.9420024596
  0
LINE
  5
878
100
AcDbEntity
  8
0
100
AcDbLine
 62
2
  6
CONTINUOUS
 10
12.2347553251
 20
2.0450124596
 11
12.2334513251
 21
2.0434884596
  0
LINE
  5
879
100
AcDbEntity
  8
0
100
AcDbLine
 62
2
  6
CONTINUOUS
 10
12.1714103251
 20
2.0814404596
 11
12.1698413251
 21
2.0796104596
  0
LINE
  5
87A
100
AcDbEntity
  8
0
100
AcDbLine
 62
2
  6
CONTINUOUS
 10
12.3349013251
 20
2.0563174596
 11
12.3333293251
 21
2.0544854596
  0
LINE
  5
87B
100
AcDbEntity
  8
0
100
AcDbLine
 62
2
  6
CONTINUOUS
 10
12.2173743251
 20
2.0609614596
 11
12.2191083251
 21
2.0629754596
  0
LINE
  5
87C
100
AcDbEntity
  8
0
100
AcDbLine
 62
2
  6
CONTINUOUS
 10
12.3107773251
 20
2.0675344596
 11
12.3124593251
 21
2.0694844596
  0
LINE
  5
87D
100
AcDbEntity
  8
0
100
AcDbLine
 62
2
  6
CONTINUOUS
 10
12.3573673251
 20
1.8910104596
 11
12.3589603251
 21
1.8928524596
  0
LINE
  5
87E
100
AcDbEntity
  8
0
100
AcDbLine
 62
2
  6
CONTINUOUS
 10
12.1632283251
 20
2.1179704596
 11
12.1616333251
 21
2.1161284596
  0
LINE
  5
87F
100
AcDbEntity
  8
0
100
AcDbLine
 62
2
  6
CONTINUOUS
 10
12.1707373251
 20
1.9771084596
 11
12.1692273251
 21
1.9753704596
  0
LINE
  5
880
100
AcDbEntity
  8
0
100
AcDbLine
 62
2
  6
CONTINUOUS
 10
12.2675663251
 20
2.0052264596
 11
12.2659083251
 21
2.0033304596
  0
LINE
  5
881
100
AcDbEntity
  8
0
100
AcDbLine
 62
2
  6
CONTINUOUS
 10
12.2579393251
 20
2.0340024596
 11
12.2562763251
 21
2.0321074596
  0
LINE
  5
882
100
AcDbEntity
  8
0
100
AcDbLine
 62
2
  6
CONTINUOUS
 10
12.1921973251
 20
1.9585464596
 11
12.1906233251
 21
1.9567614596
  0
LINE
  5
883
100
AcDbEntity
  8
0
100
AcDbLine
 62
2
  6
CONTINUOUS
 10
12.2218373251
 20
1.9174444596
 11
12.2233763251
 21
1.9191774596
  0
LINE
  5
884
100
AcDbEntity
  8
0
100
AcDbLine
 62
2
  6
CONTINUOUS
 10
12.2828303251
 20
1.8563734596
 11
12.2812153251
 21
1.8545754596
  0
LINE
  5
885
100
AcDbEntity
  8
0
100
AcDbLine
 62
2
  6
CONTINUOUS
 10
12.2377633251
 20
2.1526064596
 11
12.2393813251
 21
2.1544064596
  0
LINE
  5
886
100
AcDbEntity
  8
0
100
AcDbLine
 62
2
  6
CONTINUOUS
 10
12.2957093251
 20
2.0957914596
 11
12.2972523251
 21
2.0975014596
  0
LINE
  5
887
100
AcDbEntity
  8
0
100
AcDbLine
 62
2
  6
CONTINUOUS
 10
12.2263383251
 20
2.0812274596
 11
12.2246873251
 21
2.0794234596
  0
LINE
  5
888
100
AcDbEntity
  8
0
100
AcDbLine
 62
2
  6
CONTINUOUS
 10
12.3556763251
 20
1.8891774596
 11
12.3573673251
 21
1.8910104596
  0
LINE
  5
889
100
AcDbEntity
  8
0
100
AcDbLine
 62
2
  6
CONTINUOUS
 10
12.1649223251
 20
2.1198044596
 11
12.1632283251
 21
2.1179704596
  0
LINE
  5
88A
100
AcDbEntity
  8
0
100
AcDbLine
 62
2
  6
CONTINUOUS
 10
12.3089423251
 20
2.0655624596
 11
12.3107773251
 21
2.0675344596
  0
LINE
  5
88B
100
AcDbEntity
  8
0
100
AcDbLine
 62
2
  6
CONTINUOUS
 10
12.2691563251
 20
2.0069304596
 11
12.2675663251
 21
2.0052264596
  0
LINE
  5
88C
100
AcDbEntity
  8
0
100
AcDbLine
 62
2
  6
CONTINUOUS
 10
12.3512093251
 20
1.9189864596
 11
12.3527293251
 21
1.9206154596
  0
LINE
  5
88D
100
AcDbEntity
  8
0
100
AcDbLine
 62
2
  6
CONTINUOUS
 10
12.1722633251
 20
1.9787374596
 11
12.1707373251
 21
1.9771084596
  0
LINE
  5
88E
100
AcDbEntity
  8
0
100
AcDbLine
 62
2
  6
CONTINUOUS
 10
12.2334513251
 20
2.0434884596
 11
12.2318663251
 21
2.0417964596
  0
LINE
  5
88F
100
AcDbEntity
  8
0
100
AcDbLine
 62
2
  6
CONTINUOUS
 10
12.2283983251
 20
2.0348594596
 11
12.2300963251
 21
2.0366694596
  0
LINE
  5
890
100
AcDbEntity
  8
0
100
AcDbLine
 62
2
  6
CONTINUOUS
 10
12.3003033251
 20
1.9903564596
 11
12.2987413251
 21
1.9886984596
  0
LINE
  5
891
100
AcDbEntity
  8
0
100
AcDbLine
 62
2
  6
CONTINUOUS
 10
12.1938453251
 20
1.9602954596
 11
12.1921973251
 21
1.9585464596
  0
LINE
  5
892
100
AcDbEntity
  8
0
100
AcDbLine
 62
2
  6
CONTINUOUS
 10
12.2155483251
 20
2.0590314596
 11
12.2173743251
 21
2.0609614596
  0
LINE
  5
893
100
AcDbEntity
  8
0
100
AcDbLine
 62
2
  6
CONTINUOUS
 10
12.2054833251
 20
2.0966054596
 11
12.2039773251
 21
2.0950234596
  0
LINE
  5
894
100
AcDbEntity
  8
0
100
AcDbLine
 62
2
  6
CONTINUOUS
 10
12.1986043251
 20
1.9652024596
 11
12.1970413251
 21
1.9635804596
  0
LINE
  5
895
100
AcDbEntity
  8
0
100
AcDbLine
 62
2
  6
CONTINUOUS
 10
12.3074753251
 20
2.0640434596
 11
12.3089423251
 21
2.0655624596
  0
LINE
  5
896
100
AcDbEntity
  8
0
100
AcDbLine
 62
2
  6
CONTINUOUS
 10
12.1995973251
 20
1.9384834596
 11
12.2013123251
 21
1.9402594596
  0
LINE
  5
897
100
AcDbEntity
  8
0
100
AcDbLine
 62
2
  6
CONTINUOUS
 10
12.1970413251
 20
1.9635804596
 11
12.1938453251
 21
1.9602954596
  0
LINE
  5
898
100
AcDbEntity
  8
0
100
AcDbLine
 62
2
  6
CONTINUOUS
 10
12.2266593251
 20
2.0330754596
 11
12.2283983251
 21
2.0348594596
  0
LINE
  5
899
100
AcDbEntity
  8
0
100
AcDbLine
 62
2
  6
CONTINUOUS
 10
12.2201703251
 20
1.9157464596
 11
12.2218373251
 21
1.9174444596
  0
LINE
  5
89A
100
AcDbEntity
  8
0
100
AcDbLine
 62
2
  6
CONTINUOUS
 10
12.3409643251
 20
2.0142014596
 11
12.3392633251
 21
2.0124684596
  0
LINE
  5
89B
100
AcDbEntity
  8
0
100
AcDbLine
 62
2
  6
CONTINUOUS
 10
12.2705953251
 20
2.0083944596
 11
12.2691563251
 21
2.0069304596
  0
LINE
  5
89C
100
AcDbEntity
  8
0
100
AcDbLine
 62
2
  6
CONTINUOUS
 10
12.2983253251
 20
2.0016494596
 11
12.2967603251
 21
2.0000624596
  0
LINE
  5
89D
100
AcDbEntity
  8
0
100
AcDbLine
 62
2
  6
CONTINUOUS
 10
12.1666193251
 20
2.1215194596
 11
12.1649223251
 21
2.1198044596
  0
LINE
  5
89E
100
AcDbEntity
  8
0
100
AcDbLine
 62
2
  6
CONTINUOUS
 10
12.3539743251
 20
1.8874624596
 11
12.3556763251
 21
1.8891774596
  0
LINE
  5
89F
100
AcDbEntity
  8
0
100
AcDbLine
 62
2
  6
CONTINUOUS
 10
12.2137333251
 20
2.0572034596
 11
12.2155483251
 21
2.0590314596
  0
LINE
  5
8A0
100
AcDbEntity
  8
0
100
AcDbLine
 62
2
  6
CONTINUOUS
 10
12.3179963251
 20
2.0826364596
 11
12.3163063251
 21
2.0809484596
  0
LINE
  5
8A1
100
AcDbEntity
  8
0
100
AcDbLine
 62
2
  6
CONTINUOUS
 10
12.3229323251
 20
2.0454394596
 11
12.3213283251
 21
2.0438384596
  0
LINE
  5
8A2
100
AcDbEntity
  8
0
100
AcDbLine
 62
2
  6
CONTINUOUS
 10
12.2001853251
 20
1.9667794596
 11
12.1986043251
 21
1.9652024596
  0
LINE
  5
8A3
100
AcDbEntity
  8
0
100
AcDbLine
 62
2
  6
CONTINUOUS
 10
12.2318663251
 20
2.0417964596
 11
12.2302063251
 21
2.0401444596
  0
LINE
  5
8A4
100
AcDbEntity
  8
0
100
AcDbLine
 62
2
  6
CONTINUOUS
 10
12.2214253251
 20
1.9818944596
 11
12.2212693251
 21
1.9817394596
  0
LINE
  5
8A5
100
AcDbEntity
  8
0
100
AcDbLine
 62
2
  6
CONTINUOUS
 10
12.2717873251
 20
2.0095754596
 11
12.2705953251
 21
2.0083944596
  0
LINE
  5
8A6
100
AcDbEntity
  8
0
100
AcDbLine
 62
2
  6
CONTINUOUS
 10
12.1738353251
 20
1.9802934596
 11
12.1722633251
 21
1.9787374596
  0
LINE
  5
8A7
100
AcDbEntity
  8
0
100
AcDbLine
 62
2
  6
CONTINUOUS
 10
12.2122833251
 20
2.0557734596
 11
12.2137333251
 21
2.0572034596
  0
LINE
  5
8A8
100
AcDbEntity
  8
0
100
AcDbLine
 62
2
  6
CONTINUOUS
 10
12.2972523251
 20
2.0975014596
 11
12.2988693251
 21
2.0990874596
  0
LINE
  5
8A9
100
AcDbEntity
  8
0
100
AcDbLine
 62
2
  6
CONTINUOUS
 10
12.2285573251
 20
2.0385534596
 11
12.2269303251
 21
2.0369754596
  0
LINE
  5
8AA
100
AcDbEntity
  8
0
100
AcDbLine
 62
2
  6
CONTINUOUS
 10
12.2302063251
 20
2.0401444596
 11
12.2285573251
 21
2.0385534596
  0
LINE
  5
8AB
100
AcDbEntity
  8
0
100
AcDbLine
 62
2
  6
CONTINUOUS
 10
12.3317443251
 20
1.9391484596
 11
12.3300483251
 21
1.9375124596
  0
LINE
  5
8AC
100
AcDbEntity
  8
0
100
AcDbLine
 62
2
  6
CONTINUOUS
 10
12.2562763251
 20
2.0321074596
 11
12.2544513251
 21
2.0303514596
  0
LINE
  5
8AD
100
AcDbEntity
  8
0
100
AcDbLine
 62
2
  6
CONTINUOUS
 10
12.3245973251
 20
2.0470364596
 11
12.3229323251
 21
2.0454394596
  0
LINE
  5
8AE
100
AcDbEntity
  8
0
100
AcDbLine
 62
2
  6
CONTINUOUS
 10
12.3496223251
 20
1.9174744596
 11
12.3512093251
 21
1.9189864596
  0
LINE
  5
8AF
100
AcDbEntity
  8
0
100
AcDbLine
 62
2
  6
CONTINUOUS
 10
12.2269303251
 20
2.0369754596
 11
12.2252893251
 21
2.0354184596
  0
LINE
  5
8B0
100
AcDbEntity
  8
0
100
AcDbLine
 62
2
  6
CONTINUOUS
 10
12.3523363251
 20
1.8859124596
 11
12.3539743251
 21
1.8874624596
  0
LINE
  5
8B1
100
AcDbEntity
  8
0
100
AcDbLine
 62
2
  6
CONTINUOUS
 10
12.3213283251
 20
2.0438384596
 11
12.3196323251
 21
2.0422344596
  0
LINE
  5
8B2
100
AcDbEntity
  8
0
100
AcDbLine
 62
2
  6
CONTINUOUS
 10
12.1682603251
 20
2.1230694596
 11
12.1666193251
 21
2.1215194596
  0
LINE
  5
8B3
100
AcDbEntity
  8
0
100
AcDbLine
 62
2
  6
CONTINUOUS
 10
12.3333293251
 20
2.0544854596
 11
12.3316113251
 21
2.0528714596
  0
LINE
  5
8B4
100
AcDbEntity
  8
0
100
AcDbLine
 62
2
  6
CONTINUOUS
 10
12.2071563251
 20
2.0981664596
 11
12.2054833251
 21
2.0966054596
  0
LINE
  5
8B5
100
AcDbEntity
  8
0
100
AcDbLine
 62
2
  6
CONTINUOUS
 10
12.1754873251
 20
1.9818214596
 11
12.1738353251
 21
1.9802934596
  0
LINE
  5
8B6
100
AcDbEntity
  8
0
100
AcDbLine
 62
2
  6
CONTINUOUS
 10
12.1977703251
 20
1.9368004596
 11
12.1995973251
 21
1.9384834596
  0
LINE
  5
8B7
100
AcDbEntity
  8
0
100
AcDbLine
 62
2
  6
CONTINUOUS
 10
12.2019813251
 20
1.9684224596
 11
12.2001853251
 21
1.9667794596
  0
LINE
  5
8B8
100
AcDbEntity
  8
0
100
AcDbLine
 62
2
  6
CONTINUOUS
 10
12.3205193251
 20
1.9388944596
 11
12.3221653251
 21
1.9403924596
  0
LINE
  5
8B9
100
AcDbEntity
  8
0
100
AcDbLine
 62
2
  6
CONTINUOUS
 10
12.2544513251
 20
2.0303514596
 11
12.2529403251
 21
2.0289964596
  0
LINE
  5
8BA
100
AcDbEntity
  8
0
100
AcDbLine
 62
2
  6
CONTINUOUS
 10
12.1699703251
 20
2.1245994596
 11
12.1682603251
 21
2.1230694596
  0
LINE
  5
8BB
100
AcDbEntity
  8
0
100
AcDbLine
 62
2
  6
CONTINUOUS
 10
12.3263373251
 20
2.0485934596
 11
12.3245973251
 21
2.0470364596
  0
LINE
  5
8BC
100
AcDbEntity
  8
0
100
AcDbLine
 62
2
  6
CONTINUOUS
 10
12.3506253251
 20
1.8843824596
 11
12.3523363251
 21
1.8859124596
  0
LINE
  5
8BD
100
AcDbEntity
  8
0
100
AcDbLine
 62
2
  6
CONTINUOUS
 10
12.3020243251
 20
1.9918924596
 11
12.3003033251
 21
1.9903564596
  0
LINE
  5
8BE
100
AcDbEntity
  8
0
100
AcDbLine
 62
2
  6
CONTINUOUS
 10
12.2183563251
 20
1.9141374596
 11
12.2201703251
 21
1.9157464596
  0
LINE
  5
8BF
100
AcDbEntity
  8
0
100
AcDbLine
 62
2
  6
CONTINUOUS
 10
12.1772513251
 20
1.9833634596
 11
12.1754873251
 21
1.9818214596
  0
LINE
  5
8C0
100
AcDbEntity
  8
0
100
AcDbLine
 62
2
  6
CONTINUOUS
 10
12.3812363251
 20
2.0258314596
 11
12.3829013251
 21
2.0272684596
  0
LINE
  5
8C1
100
AcDbEntity
  8
0
100
AcDbLine
 62
2
  6
CONTINUOUS
 10
12.1393593251
 20
1.9831484596
 11
12.1376923251
 21
1.9817134596
  0
LINE
  5
8C2
100
AcDbEntity
  8
0
100
AcDbLine
 62
2
  6
CONTINUOUS
 10
12.2247883251
 20
2.0314694596
 11
12.2266593251
 21
2.0330754596
  0
LINE
  5
8C3
100
AcDbEntity
  8
0
100
AcDbLine
 62
2
  6
CONTINUOUS
 10
12.3479183251
 20
1.9160174596
 11
12.3496223251
 21
1.9174744596
  0
LINE
  5
8C4
100
AcDbEntity
  8
0
100
AcDbLine
 62
2
  6
CONTINUOUS
 10
12.2089723251
 20
2.0997184596
 11
12.2071563251
 21
2.0981664596
  0
LINE
  5
8C5
100
AcDbEntity
  8
0
100
AcDbLine
 62
2
  6
CONTINUOUS
 10
12.3488553251
 20
1.8828764596
 11
12.3506253251
 21
1.8843824596
  0
LINE
  5
8C6
100
AcDbEntity
  8
0
100
AcDbLine
 62
2
  6
CONTINUOUS
 10
12.1717393251
 20
2.1261034596
 11
12.1699703251
 21
2.1245994596
  0
LINE
  5
8C7
100
AcDbEntity
  8
0
100
AcDbLine
 62
2
  6
CONTINUOUS
 10
12.2988693251
 20
2.0990874596
 11
12.3006513251
 21
2.1005994596
  0
LINE
  5
8C8
100
AcDbEntity
  8
0
100
AcDbLine
 62
2
  6
CONTINUOUS
 10
12.3196323251
 20
2.0422344596
 11
12.3178573251
 21
2.0407324596
  0
LINE
  5
8C9
100
AcDbEntity
  8
0
100
AcDbLine
 62
2
  6
CONTINUOUS
 10
12.2252893251
 20
2.0354184596
 11
12.2235483251
 21
2.0339474596
  0
LINE
  5
8CA
100
AcDbEntity
  8
0
100
AcDbLine
 62
2
  6
CONTINUOUS
 10
12.3281373251
 20
2.0501064596
 11
12.3263373251
 21
2.0485934596
  0
LINE
  5
8CB
100
AcDbEntity
  8
0
100
AcDbLine
 62
2
  6
CONTINUOUS
 10
12.1791623251
 20
1.9849594596
 11
12.1772513251
 21
1.9833634596
  0
LINE
  5
8CC
100
AcDbEntity
  8
0
100
AcDbLine
 62
2
  6
CONTINUOUS
 10
12.1961163251
 20
1.9354204596
 11
12.1977703251
 21
1.9368004596
  0
LINE
  5
8CD
100
AcDbEntity
  8
0
100
AcDbLine
 62
2
  6
CONTINUOUS
 10
12.2036453251
 20
1.9698104596
 11
12.2019813251
 21
1.9684224596
  0
LINE
  5
8CE
100
AcDbEntity
  8
0
100
AcDbLine
 62
2
  6
CONTINUOUS
 10
12.1735543251
 20
2.1275824596
 11
12.1717393251
 21
2.1261034596
  0
LINE
  5
8CF
100
AcDbEntity
  8
0
100
AcDbLine
 62
2
  6
CONTINUOUS
 10
12.3470413251
 20
1.8813984596
 11
12.3488553251
 21
1.8828764596
  0
LINE
  5
8D0
100
AcDbEntity
  8
0
100
AcDbLine
 62
2
  6
CONTINUOUS
 10
12.1808923251
 20
1.9863614596
 11
12.1791623251
 21
1.9849594596
  0
LINE
  5
8D1
100
AcDbEntity
  8
0
100
AcDbLine
 62
2
  6
CONTINUOUS
 10
12.3392633251
 20
2.0124684596
 11
12.3374093251
 21
2.0109784596
  0
LINE
  5
8D2
100
AcDbEntity
  8
0
100
AcDbLine
 62
2
  6
CONTINUOUS
 10
12.3316113251
 20
2.0528714596
 11
12.3299023251
 21
2.0515014596
  0
LINE
  5
8D3
100
AcDbEntity
  8
0
100
AcDbLine
 62
2
  6
CONTINUOUS
 10
12.2108753251
 20
2.1012314596
 11
12.2089723251
 21
2.0997184596
  0
LINE
  5
8D4
100
AcDbEntity
  8
0
100
AcDbLine
 62
2
  6
CONTINUOUS
 10
12.1827123251
 20
1.9878034596
 11
12.1808923251
 21
1.9863614596
  0
LINE
  5
8D5
100
AcDbEntity
  8
0
100
AcDbLine
 62
2
  6
CONTINUOUS
 10
12.3002603251
 20
2.0031814596
 11
12.2983253251
 21
2.0016494596
  0
LINE
  5
8D6
100
AcDbEntity
  8
0
100
AcDbLine
 62
2
  6
CONTINUOUS
 10
12.3299023251
 20
2.0515014596
 11
12.3281373251
 21
2.0501064596
  0
LINE
  5
8D7
100
AcDbEntity
  8
0
100
AcDbLine
 62
2
  6
CONTINUOUS
 10
12.1754043251
 20
2.1290324596
 11
12.1735543251
 21
2.1275824596
  0
LINE
  5
8D8
100
AcDbEntity
  8
0
100
AcDbLine
 62
2
  6
CONTINUOUS
 10
12.2053593251
 20
1.9711524596
 11
12.2036453251
 21
1.9698104596
  0
LINE
  5
8D9
100
AcDbEntity
  8
0
100
AcDbLine
 62
2
  6
CONTINUOUS
 10
12.3451893251
 20
1.8799494596
 11
12.3470413251
 21
1.8813984596
  0
LINE
  5
8DA
100
AcDbEntity
  8
0
100
AcDbLine
 62
2
  6
CONTINUOUS
 10
12.2796773251
 20
2.0427734596
 11
12.2810893251
 21
2.0438774596
  0
LINE
  5
8DB
100
AcDbEntity
  8
0
100
AcDbLine
 62
2
  6
CONTINUOUS
 10
12.1845813251
 20
1.9892584596
 11
12.1827123251
 21
1.9878034596
  0
LINE
  5
8DC
100
AcDbEntity
  8
0
100
AcDbLine
 62
2
  6
CONTINUOUS
 10
12.3300483251
 20
1.9375124596
 11
12.3282313251
 21
1.9361004596
  0
LINE
  5
8DD
100
AcDbEntity
  8
0
100
AcDbLine
 62
2
  6
CONTINUOUS
 10
12.3460973251
 20
1.9146034596
 11
12.3479183251
 21
1.9160174596
  0
LINE
  5
8DE
100
AcDbEntity
  8
0
100
AcDbLine
 62
2
  6
CONTINUOUS
 10
12.2747983251
 20
2.0118264596
 11
12.2783573251
 21
2.0145704596
  0
LINE
  5
8DF
100
AcDbEntity
  8
0
100
AcDbLine
 62
2
  6
CONTINUOUS
 10
12.3178573251
 20
2.0407324596
 11
12.3159703251
 21
2.0392804596
  0
LINE
  5
8E0
100
AcDbEntity
  8
0
100
AcDbLine
 62
2
  6
CONTINUOUS
 10
12.2783573251
 20
2.0145704596
 11
12.2802173251
 21
2.0159944596
  0
LINE
  5
8E1
100
AcDbEntity
  8
0
100
AcDbLine
 62
2
  6
CONTINUOUS
 10
12.1864653251
 20
1.9906984596
 11
12.1845813251
 21
1.9892584596
  0
LINE
  5
8E2
100
AcDbEntity
  8
0
100
AcDbLine
 62
2
  6
CONTINUOUS
 10
12.2802173251
 20
2.0159944596
 11
12.2820793251
 21
2.0174074596
  0
LINE
  5
8E3
100
AcDbEntity
  8
0
100
AcDbLine
 62
2
  6
CONTINUOUS
 10
12.3038803251
 20
1.9933004596
 11
12.3020243251
 21
1.9918924596
  0
LINE
  5
8E4
100
AcDbEntity
  8
0
100
AcDbLine
 62
2
  6
CONTINUOUS
 10
12.3433183251
 20
1.8785314596
 11
12.3451893251
 21
1.8799494596
  0
LINE
  5
8E5
100
AcDbEntity
  8
0
100
AcDbLine
 62
2
  6
CONTINUOUS
 10
12.2730573251
 20
2.0105074596
 11
12.2747983251
 21
2.0118264596
  0
LINE
  5
8E6
100
AcDbEntity
  8
0
100
AcDbLine
 62
2
  6
CONTINUOUS
 10
12.1772783251
 20
2.1304504596
 11
12.1754043251
 21
2.1290324596
  0
LINE
  5
8E7
100
AcDbEntity
  8
0
100
AcDbLine
 62
2
  6
CONTINUOUS
 10
12.2820793251
 20
2.0174074596
 11
12.2838943251
 21
2.0187724596
  0
LINE
  5
8E8
100
AcDbEntity
  8
0
100
AcDbLine
 62
2
  6
CONTINUOUS
 10
12.2165233251
 20
1.9127614596
 11
12.2183563251
 21
1.9141374596
  0
LINE
  5
8E9
100
AcDbEntity
  8
0
100
AcDbLine
 62
2
  6
CONTINUOUS
 10
12.2773183251
 20
2.0410034596
 11
12.2796773251
 21
2.0427734596
  0
LINE
  5
8EA
100
AcDbEntity
  8
0
100
AcDbLine
 62
2
  6
CONTINUOUS
 10
12.1883253251
 20
1.9920924596
 11
12.1864653251
 21
1.9906984596
  0
LINE
  5
8EB
100
AcDbEntity
  8
0
100
AcDbLine
 62
2
  6
CONTINUOUS
 10
12.2285893251
 20
2.0829134596
 11
12.2263383251
 21
2.0812274596
  0
LINE
  5
8EC
100
AcDbEntity
  8
0
100
AcDbLine
 62
2
  6
CONTINUOUS
 10
12.2127373251
 20
2.1026214596
 11
12.2108753251
 21
2.1012314596
  0
LINE
  5
8ED
100
AcDbEntity
  8
0
100
AcDbLine
 62
2
  6
CONTINUOUS
 10
12.2072363251
 20
1.9725514596
 11
12.2053593251
 21
1.9711524596
  0
LINE
  5
8EE
100
AcDbEntity
  8
0
100
AcDbLine
 62
2
  6
CONTINUOUS
 10
12.3202923251
 20
1.9720534596
 11
12.3221233251
 21
1.9734114596
  0
LINE
  5
8EF
100
AcDbEntity
  8
0
100
AcDbLine
 62
2
  6
CONTINUOUS
 10
12.2838943251
 20
2.0187724596
 11
12.2862373251
 21
2.0205094596
  0
LINE
  5
8F0
100
AcDbEntity
  8
0
100
AcDbLine
 62
2
  6
CONTINUOUS
 10
12.2393813251
 20
2.1544064596
 11
12.2411773251
 21
2.1557364596
  0
LINE
  5
8F1
100
AcDbEntity
  8
0
100
AcDbLine
 62
2
  6
CONTINUOUS
 10
12.2812153251
 20
1.8545754596
 11
12.2794183251
 21
1.8532454596
  0
LINE
  5
8F2
100
AcDbEntity
  8
0
100
AcDbLine
 62
2
  6
CONTINUOUS
 10
12.3006513251
 20
2.1005994596
 11
12.3025063251
 21
2.1019654596
  0
LINE
  5
8F3
100
AcDbEntity
  8
0
100
AcDbLine
 62
2
  6
CONTINUOUS
 10
12.1901233251
 20
1.9934134596
 11
12.1883253251
 21
1.9920924596
  0
LINE
  5
8F4
100
AcDbEntity
  8
0
100
AcDbLine
 62
2
  6
CONTINUOUS
 10
12.1791623251
 20
2.1318334596
 11
12.1772783251
 21
2.1304504596
  0
LINE
  5
8F5
100
AcDbEntity
  8
0
100
AcDbLine
 62
2
  6
CONTINUOUS
 10
12.3414333251
 20
1.8771484596
 11
12.3433183251
 21
1.8785314596
  0
LINE
  5
8F6
100
AcDbEntity
  8
0
100
AcDbLine
 62
2
  6
CONTINUOUS
 10
12.2862373251
 20
2.0205094596
 11
12.2881973251
 21
2.0219424596
  0
LINE
  5
8F7
100
AcDbEntity
  8
0
100
AcDbLine
 62
2
  6
CONTINUOUS
 10
12.2712183251
 20
2.0091674596
 11
12.2730573251
 21
2.0105074596
  0
LINE
  5
8F8
100
AcDbEntity
  8
0
100
AcDbLine
 62
2
  6
CONTINUOUS
 10
12.2881973251
 20
2.0219424596
 11
12.2894683251
 21
2.0228614596
  0
LINE
  5
8F9
100
AcDbEntity
  8
0
100
AcDbLine
 62
2
  6
CONTINUOUS
 10
12.1730933251
 20
2.0826554596
 11
12.1714103251
 21
2.0814404596
  0
LINE
  5
8FA
100
AcDbEntity
  8
0
100
AcDbLine
 62
2
  6
CONTINUOUS
 10
12.2754813251
 20
2.0396854596
 11
12.2773183251
 21
2.0410034596
  0
LINE
  5
8FB
100
AcDbEntity
  8
0
100
AcDbLine
 62
2
  6
CONTINUOUS
 10
12.1917053251
 20
1.9945464596
 11
12.1901233251
 21
1.9934134596
  0
LINE
  5
8FC
100
AcDbEntity
  8
0
100
AcDbLine
 62
2
  6
CONTINUOUS
 10
12.2092453251
 20
1.9739864596
 11
12.2072363251
 21
1.9725514596
  0
LINE
  5
8FD
100
AcDbEntity
  8
0
100
AcDbLine
 62
2
  6
CONTINUOUS
 10
12.3395493251
 20
1.8758024596
 11
12.3414333251
 21
1.8771484596
  0
LINE
  5
8FE
100
AcDbEntity
  8
0
100
AcDbLine
 62
2
  6
CONTINUOUS
 10
12.1810463251
 20
2.1331784596
 11
12.1791623251
 21
2.1318334596
  0
LINE
  5
8FF
100
AcDbEntity
  8
0
100
AcDbLine
 62
2
  6
CONTINUOUS
 10
12.3159703251
 20
2.0392804596
 11
12.3141243251
 21
2.0379734596
  0
LINE
  5
900
100
AcDbEntity
  8
0
100
AcDbLine
 62
2
  6
CONTINUOUS
 10
12.3441743251
 20
1.9132514596
 11
12.3460973251
 21
1.9146034596
  0
LINE
  5
901
100
AcDbEntity
  8
0
100
AcDbLine
 62
2
  6
CONTINUOUS
 10
12.3376803251
 20
1.8744954596
 11
12.3395493251
 21
1.8758024596
  0
LINE
  5
902
100
AcDbEntity
  8
0
100
AcDbLine
 62
2
  6
CONTINUOUS
 10
12.1829183251
 20
2.1344854596
 11
12.1810463251
 21
2.1331784596
  0
LINE
  5
903
100
AcDbEntity
  8
0
100
AcDbLine
 62
2
  6
CONTINUOUS
 10
12.2526163251
 20
2.0254354596
 11
12.2541233251
 21
2.0264794596
  0
LINE
  5
904
100
AcDbEntity
  8
0
100
AcDbLine
 62
2
  6
CONTINUOUS
 10
12.2235483251
 20
2.0339474596
 11
12.2215473251
 21
2.0325674596
  0
LINE
  5
905
100
AcDbEntity
  8
0
100
AcDbLine
 62
2
  6
CONTINUOUS
 10
12.2691813251
 20
2.0077624596
 11
12.2712183251
 21
2.0091674596
  0
LINE
  5
906
100
AcDbEntity
  8
0
100
AcDbLine
 62
2
  6
CONTINUOUS
 10
12.2735283251
 20
2.0383404596
 11
12.2754813251
 21
2.0396854596
  0
LINE
  5
907
100
AcDbEntity
  8
0
100
AcDbLine
 62
2
  6
CONTINUOUS
 10
12.2113473251
 20
1.9754314596
 11
12.2092453251
 21
1.9739864596
  0
LINE
  5
908
100
AcDbEntity
  8
0
100
AcDbLine
 62
2
  6
CONTINUOUS
 10
12.2146633251
 20
2.1039444596
 11
12.2127373251
 21
2.1026214596
  0
LINE
  5
909
100
AcDbEntity
  8
0
100
AcDbLine
 62
2
  6
CONTINUOUS
 10
12.1941463251
 20
1.9340684596
 11
12.1961163251
 21
1.9354204596
  0
LINE
  5
90A
100
AcDbEntity
  8
0
100
AcDbLine
 62
2
  6
CONTINUOUS
 10
12.1847913251
 20
2.1357674596
 11
12.1829183251
 21
2.1344854596
  0
LINE
  5
90B
100
AcDbEntity
  8
0
100
AcDbLine
 62
2
  6
CONTINUOUS
 10
12.3358053251
 20
1.8732134596
 11
12.3376803251
 21
1.8744954596
  0
LINE
  5
90C
100
AcDbEntity
  8
0
100
AcDbLine
 62
2
  6
CONTINUOUS
 10
12.1932653251
 20
1.9956074596
 11
12.1917053251
 21
1.9945464596
  0
LINE
  5
90D
100
AcDbEntity
  8
0
100
AcDbLine
 62
2
  6
CONTINUOUS
 10
12.2541233251
 20
2.0264794596
 11
12.2561033251
 21
2.0278234596
  0
LINE
  5
90E
100
AcDbEntity
  8
0
100
AcDbLine
 62
2
  6
CONTINUOUS
 10
12.3338233251
 20
1.8718804596
 11
12.3358053251
 21
1.8732134596
  0
LINE
  5
90F
100
AcDbEntity
  8
0
100
AcDbLine
 62
2
  6
CONTINUOUS
 10
12.1867743251
 20
2.1371004596
 11
12.1847913251
 21
2.1357674596
  0
LINE
  5
910
100
AcDbEntity
  8
0
100
AcDbLine
 62
2
  6
CONTINUOUS
 10
12.1376923251
 20
1.9817134596
 11
12.1357133251
 21
1.9803874596
  0
LINE
  5
911
100
AcDbEntity
  8
0
100
AcDbLine
 62
2
  6
CONTINUOUS
 10
12.3829013251
 20
2.0272684596
 11
12.3848833251
 21
2.0285934596
  0
LINE
  5
912
100
AcDbEntity
  8
0
100
AcDbLine
 62
2
  6
CONTINUOUS
 10
12.2136033251
 20
1.9769314596
 11
12.2113473251
 21
1.9754314596
  0
LINE
  5
913
100
AcDbEntity
  8
0
100
AcDbLine
 62
2
  6
CONTINUOUS
 10
12.1887273251
 20
2.1383864596
 11
12.1867743251
 21
2.1371004596
  0
LINE
  5
914
100
AcDbEntity
  8
0
100
AcDbLine
 62
2
  6
CONTINUOUS
 10
12.2713983251
 20
2.0369394596
 11
12.2735283251
 21
2.0383404596
  0
LINE
  5
915
100
AcDbEntity
  8
0
100
AcDbLine
 62
2
  6
CONTINUOUS
 10
12.3025063251
 20
2.1019654596
 11
12.3044313251
 21
2.1032284596
  0
LINE
  5
916
100
AcDbEntity
  8
0
100
AcDbLine
 62
2
  6
CONTINUOUS
 10
12.3318663251
 20
1.8705964596
 11
12.3338233251
 21
1.8718804596
  0
LINE
  5
917
100
AcDbEntity
  8
0
100
AcDbLine
 62
2
  6
CONTINUOUS
 10
12.2673103251
 20
2.0065374596
 11
12.2691813251
 21
2.0077624596
  0
LINE
  5
918
100
AcDbEntity
  8
0
100
AcDbLine
 62
2
  6
CONTINUOUS
 10
12.2561033251
 20
2.0278234596
 11
12.2583913251
 21
2.0293154596
  0
LINE
  5
919
100
AcDbEntity
  8
0
100
AcDbLine
 62
2
  6
CONTINUOUS
 10
12.3058103251
 20
1.9945474596
 11
12.3038803251
 21
1.9933004596
  0
LINE
  5
91A
100
AcDbEntity
  8
0
100
AcDbLine
 62
2
  6
CONTINUOUS
 10
12.2158713251
 20
1.9783884596
 11
12.2136033251
 21
1.9769314596
  0
LINE
  5
91B
100
AcDbEntity
  8
0
100
AcDbLine
 62
2
  6
CONTINUOUS
 10
12.3299303251
 20
1.8693534596
 11
12.3318663251
 21
1.8705964596
  0
LINE
  5
91C
100
AcDbEntity
  8
0
100
AcDbLine
 62
2
  6
CONTINUOUS
 10
12.2145833251
 20
1.9115184596
 11
12.2165233251
 21
1.9127614596
  0
LINE
  5
91D
100
AcDbEntity
  8
0
100
AcDbLine
 62
2
  6
CONTINUOUS
 10
12.3022603251
 20
2.0044514596
 11
12.3002603251
 21
2.0031814596
  0
LINE
  5
91E
100
AcDbEntity
  8
0
100
AcDbLine
 62
2
  6
CONTINUOUS
 10
12.3421603251
 20
1.9119734596
 11
12.3441743251
 21
1.9132514596
  0
LINE
  5
91F
100
AcDbEntity
  8
0
100
AcDbLine
 62
2
  6
CONTINUOUS
 10
12.3141243251
 20
2.0379734596
 11
12.3117703251
 21
2.0364834596
  0
LINE
  5
920
100
AcDbEntity
  8
0
100
AcDbLine
 62
2
  6
CONTINUOUS
 10
12.2654183251
 20
2.0053454596
 11
12.2673103251
 21
2.0065374596
  0
LINE
  5
921
100
AcDbEntity
  8
0
100
AcDbLine
 62
2
  6
CONTINUOUS
 10
12.1949173251
 20
1.9966474596
 11
12.1932653251
 21
1.9956074596
  0
LINE
  5
922
100
AcDbEntity
  8
0
100
AcDbLine
 62
2
  6
CONTINUOUS
 10
12.2179823251
 20
1.9797164596
 11
12.2158713251
 21
1.9783884596
  0
LINE
  5
923
100
AcDbEntity
  8
0
100
AcDbLine
 62
2
  6
CONTINUOUS
 10
12.3282313251
 20
1.9361004596
 11
12.3262803251
 21
1.9348804596
  0
LINE
  5
924
100
AcDbEntity
  8
0
100
AcDbLine
 62
2
  6
CONTINUOUS
 10
12.3280003251
 20
1.8681474596
 11
12.3299303251
 21
1.8693534596
  0
LINE
  5
925
100
AcDbEntity
  8
0
100
AcDbLine
 62
2
  6
CONTINUOUS
 10
12.2166453251
 20
2.1051694596
 11
12.2146633251
 21
2.1039444596
  0
LINE
  5
926
100
AcDbEntity
  8
0
100
AcDbLine
 62
2
  6
CONTINUOUS
 10
12.2198233251
 20
1.9808534596
 11
12.2179823251
 21
1.9797164596
  0
LINE
  5
927
100
AcDbEntity
  8
0
100
AcDbLine
 62
2
  6
CONTINUOUS
 10
12.2691603251
 20
2.0355584596
 11
12.2713983251
 21
2.0369394596
  0
LINE
  5
928
100
AcDbEntity
  8
0
100
AcDbLine
 62
2
  6
CONTINUOUS
 10
12.2583913251
 20
2.0293154596
 11
12.2607393251
 21
2.0307634596
  0
LINE
  5
929
100
AcDbEntity
  8
0
100
AcDbLine
 62
2
  6
CONTINUOUS
 10
12.3374093251
 20
2.0109784596
 11
12.3354483251
 21
2.0097734596
  0
LINE
  5
92A
100
AcDbEntity
  8
0
100
AcDbLine
 62
2
  6
CONTINUOUS
 10
12.2212693251
 20
1.9817394596
 11
12.2198233251
 21
1.9808534596
  0
LINE
  5
92B
100
AcDbEntity
  8
0
100
AcDbLine
 62
2
  6
CONTINUOUS
 10
12.2634193251
 20
2.0041264596
 11
12.2654183251
 21
2.0053454596
  0
LINE
  5
92C
100
AcDbEntity
  8
0
100
AcDbLine
 62
2
  6
CONTINUOUS
 10
12.3260663251
 20
1.8669734596
 11
12.3280003251
 21
1.8681474596
  0
LINE
  5
92D
100
AcDbEntity
  8
0
100
AcDbLine
 62
2
  6
CONTINUOUS
 10
12.3044313251
 20
2.1032284596
 11
12.3063953251
 21
2.1044174596
  0
LINE
  5
92E
100
AcDbEntity
  8
0
100
AcDbLine
 62
2
  6
CONTINUOUS
 10
12.3848833251
 20
2.0285934596
 11
12.3867773251
 21
2.0297364596
  0
LINE
  5
92F
100
AcDbEntity
  8
0
100
AcDbLine
 62
2
  6
CONTINUOUS
 10
12.1357133251
 20
1.9803874596
 11
12.1338193251
 21
1.9792454596
  0
LINE
  5
930
100
AcDbEntity
  8
0
100
AcDbLine
 62
2
  6
CONTINUOUS
 10
12.2613653251
 20
2.0029034596
 11
12.2634193251
 21
2.0041264596
  0
LINE
  5
931
100
AcDbEntity
  8
0
100
AcDbLine
 62
2
  6
CONTINUOUS
 10
12.3241173251
 20
1.8658274596
 11
12.3260663251
 21
1.8669734596
  0
LINE
  5
932
100
AcDbEntity
  8
0
100
AcDbLine
 62
2
  6
CONTINUOUS
 10
12.2472103251
 20
1.8792674596
 11
12.2490953251
 21
1.8803674596
  0
LINE
  5
933
100
AcDbEntity
  8
0
100
AcDbLine
 62
2
  6
CONTINUOUS
 10
12.2593033251
 20
2.0017044596
 11
12.2613653251
 21
2.0029034596
  0
LINE
  5
934
100
AcDbEntity
  8
0
100
AcDbLine
 62
2
  6
CONTINUOUS
 10
12.2670953251
 20
2.0343594596
 11
12.2691603251
 21
2.0355584596
  0
LINE
  5
935
100
AcDbEntity
  8
0
100
AcDbLine
 62
2
  6
CONTINUOUS
 10
12.2607393251
 20
2.0307634596
 11
12.2628723251
 21
2.0319954596
  0
LINE
  5
936
100
AcDbEntity
  8
0
100
AcDbLine
 62
2
  6
CONTINUOUS
 10
12.2490953251
 20
1.8803674596
 11
12.2510653251
 21
1.8814964596
  0
LINE
  5
937
100
AcDbEntity
  8
0
100
AcDbLine
 62
2
  6
CONTINUOUS
 10
12.3401313251
 20
1.9108124596
 11
12.3421603251
 21
1.9119734596
  0
LINE
  5
938
100
AcDbEntity
  8
0
100
AcDbLine
 62
2
  6
CONTINUOUS
 10
12.3117703251
 20
2.0364834596
 11
12.3101723251
 21
2.0355694596
  0
LINE
  5
939
100
AcDbEntity
  8
0
100
AcDbLine
 62
2
  6
CONTINUOUS
 10
12.1967553251
 20
1.9976984596
 11
12.1949173251
 21
1.9966474596
  0
LINE
  5
93A
100
AcDbEntity
  8
0
100
AcDbLine
 62
2
  6
CONTINUOUS
 10
12.3221433251
 20
1.8647024596
 11
12.3241173251
 21
1.8658274596
  0
LINE
  5
93B
100
AcDbEntity
  8
0
100
AcDbLine
 62
2
  6
CONTINUOUS
 10
12.2571233251
 20
2.0004624596
 11
12.2593033251
 21
2.0017044596
  0
LINE
  5
93C
100
AcDbEntity
  8
0
100
AcDbLine
 62
2
  6
CONTINUOUS
 10
12.2451813251
 20
1.8781204596
 11
12.2472103251
 21
1.8792674596
  0
LINE
  5
93D
100
AcDbEntity
  8
0
100
AcDbLine
 62
2
  6
CONTINUOUS
 10
12.2628723251
 20
2.0319954596
 11
12.2670953251
 21
2.0343594596
  0
LINE
  5
93E
100
AcDbEntity
  8
0
100
AcDbLine
 62
2
  6
CONTINUOUS
 10
12.2215473251
 20
2.0325674596
 11
12.2192933251
 21
2.0313094596
  0
LINE
  5
93F
100
AcDbEntity
  8
0
100
AcDbLine
 62
2
  6
CONTINUOUS
 10
12.2546683251
 20
1.9990944596
 11
12.2571233251
 21
2.0004624596
  0
LINE
  5
940
100
AcDbEntity
  8
0
100
AcDbLine
 62
2
  6
CONTINUOUS
 10
12.3044543251
 20
2.0056724596
 11
12.3022603251
 21
2.0044514596
  0
LINE
  5
941
100
AcDbEntity
  8
0
100
AcDbLine
 62
2
  6
CONTINUOUS
 10
12.3077953251
 20
1.9956414596
 11
12.3058103251
 21
1.9945474596
  0
LINE
  5
942
100
AcDbEntity
  8
0
100
AcDbLine
 62
2
  6
CONTINUOUS
 10
12.3201323251
 20
1.8635944596
 11
12.3221433251
 21
1.8647024596
  0
LINE
  5
943
100
AcDbEntity
  8
0
100
AcDbLine
 62
2
  6
CONTINUOUS
 10
12.2125503251
 20
1.9103994596
 11
12.2145833251
 21
1.9115184596
  0
LINE
  5
944
100
AcDbEntity
  8
0
100
AcDbLine
 62
2
  6
CONTINUOUS
 10
12.2225883251
 20
2.0302614596
 11
12.2247883251
 21
2.0314694596
  0
LINE
  5
945
100
AcDbEntity
  8
0
100
AcDbLine
 62
2
  6
CONTINUOUS
 10
12.2510653251
 20
1.8814964596
 11
12.2531543251
 21
1.8826394596
  0
LINE
  5
946
100
AcDbEntity
  8
0
100
AcDbLine
 62
2
  6
CONTINUOUS
 10
12.2524593251
 20
1.9978894596
 11
12.2546683251
 21
1.9990944596
  0
LINE
  5
947
100
AcDbEntity
  8
0
100
AcDbLine
 62
2
  6
CONTINUOUS
 10
12.2505963251
 20
1.9968864596
 11
12.2524593251
 21
1.9978894596
  0
LINE
  5
948
100
AcDbEntity
  8
0
100
AcDbLine
 62
2
  6
CONTINUOUS
 10
12.3180743251
 20
1.8624984596
 11
12.3201323251
 21
1.8635944596
  0
LINE
  5
949
100
AcDbEntity
  8
0
100
AcDbLine
 62
2
  6
CONTINUOUS
 10
12.2491753251
 20
1.9961314596
 11
12.2505963251
 21
1.9968864596
  0
LINE
  5
94A
100
AcDbEntity
  8
0
100
AcDbLine
 62
2
  6
CONTINUOUS
 10
12.3380843251
 20
1.9097544596
 11
12.3401313251
 21
1.9108124596
  0
LINE
  5
94B
100
AcDbEntity
  8
0
100
AcDbLine
 62
2
  6
CONTINUOUS
 10
12.3162703251
 20
1.8615664596
 11
12.3180743251
 21
1.8624984596
  0
LINE
  5
94C
100
AcDbEntity
  8
0
100
AcDbLine
 62
2
  6
CONTINUOUS
 10
12.2432343251
 20
1.8771254596
 11
12.2451813251
 21
1.8781204596
  0
LINE
  5
94D
100
AcDbEntity
  8
0
100
AcDbLine
 62
2
  6
CONTINUOUS
 10
12.3262803251
 20
1.9348804596
 11
12.3242023251
 21
1.9338234596
  0
LINE
  5
94E
100
AcDbEntity
  8
0
100
AcDbLine
 62
2
  6
CONTINUOUS
 10
12.3066643251
 20
2.0067924596
 11
12.3044543251
 21
2.0056724596
  0
LINE
  5
94F
100
AcDbEntity
  8
0
100
AcDbLine
 62
2
  6
CONTINUOUS
 10
12.2531543251
 20
1.8826394596
 11
12.2553003251
 21
1.8837224596
  0
LINE
  5
950
100
AcDbEntity
  8
0
100
AcDbLine
 62
2
  6
CONTINUOUS
 10
12.3867773251
 20
2.0297364596
 11
12.3889023251
 21
2.0308064596
  0
LINE
  5
951
100
AcDbEntity
  8
0
100
AcDbLine
 62
2
  6
CONTINUOUS
 10
12.3145073251
 20
1.8606884596
 11
12.3162703251
 21
1.8615664596
  0
LINE
  5
952
100
AcDbEntity
  8
0
100
AcDbLine
 62
2
  6
CONTINUOUS
 10
12.3126863251
 20
1.8598174596
 11
12.3145073251
 21
1.8606884596
  0
LINE
  5
953
100
AcDbEntity
  8
0
100
AcDbLine
 62
2
  6
CONTINUOUS
 10
12.2794183251
 20
1.8532454596
 11
12.2771103251
 21
1.8521534596
  0
LINE
  5
954
100
AcDbEntity
  8
0
100
AcDbLine
 62
2
  6
CONTINUOUS
 10
12.2104503251
 20
1.9094074596
 11
12.2125503251
 21
1.9103994596
  0
LINE
  5
955
100
AcDbEntity
  8
0
100
AcDbLine
 62
2
  6
CONTINUOUS
 10
12.3359963251
 20
1.9087734596
 11
12.3380843251
 21
1.9097544596
  0
LINE
  5
956
100
AcDbEntity
  8
0
100
AcDbLine
 62
2
  6
CONTINUOUS
 10
12.3184213251
 20
1.9379304596
 11
12.3205193251
 21
1.9388944596
  0
LINE
  5
957
100
AcDbEntity
  8
0
100
AcDbLine
 62
2
  6
CONTINUOUS
 10
12.3107983251
 20
1.8589594596
 11
12.3126863251
 21
1.8598174596
  0
LINE
  5
958
100
AcDbEntity
  8
0
100
AcDbLine
 62
2
  6
CONTINUOUS
 10
12.2553003251
 20
1.8837224596
 11
12.2575163251
 21
1.8847014596
  0
LINE
  5
959
100
AcDbEntity
  8
0
100
AcDbLine
 62
2
  6
CONTINUOUS
 10
12.3088313251
 20
1.8581144596
 11
12.3107983251
 21
1.8589594596
  0
LINE
  5
95A
100
AcDbEntity
  8
0
100
AcDbLine
 62
7
  6
CONTINUOUS
 10
16.38
 20
10.62
 11
0.62
 21
10.62
  0
LWPOLYLINE
  5
95B
100
AcDbEntity
  8
0
100
AcDbPolyline
 62
2
  6
CONTINUOUS
 90
2
 70
0
 43
0.0120000003
 10
8.4250002679
 20
10.7699994643
 10
8.4750002679
 20
10.7699994643
  0
LWPOLYLINE
  5
95C
100
AcDbEntity
  8
0
100
AcDbPolyline
 62
2
  6
CONTINUOUS
 90
2
 70
0
 43
0.0120000003
 10
8.5250002679
 20
10.7699994643
 10
8.5750002679
 20
10.7699994643
  0
LWPOLYLINE
  5
95D
100
AcDbEntity
  8
0
100
AcDbPolyline
 62
2
  6
CONTINUOUS
 90
2
 70
0
 43
0.0120000003
 10
8.4750002679
 20
10.8699984643
 10
8.5250012679
 20
10.8699984643
  0
LINE
  5
95E
100
AcDbEntity
  8
0
100
AcDbLine
 62
7
  6
CONTINUOUS
 10
16.98
 20
10.99
 11
0.01
 21
10.99
  0
LINE
  5
95F
100
AcDbEntity
  8
0
100
AcDbLine
 62
7
  6
CONTINUOUS
 10
16.38
 20
10.62
 11
16.38
 21
0.38
  0
LWPOLYLINE
  5
960
100
AcDbEntity
  8
0
100
AcDbPolyline
 62
2
  6
CONTINUOUS
 90
2
 70
0
 43
0.0120000003
 10
16.529998
 20
5.574998
 10
16.529998
 20
5.524999
  0
LWPOLYLINE
  5
961
100
AcDbEntity
  8
0
100
AcDbPolyline
 62
2
  6
CONTINUOUS
 90
2
 70
0
 43
0.0120000003
 10
16.529998
 20
5.474999
 10
16.529998
 20
5.424999
  0
LWPOLYLINE
  5
962
100
AcDbEntity
  8
0
100
AcDbPolyline
 62
2
  6
CONTINUOUS
 90
2
 70
0
 43
0.0120000003
 10
16.629979
 20
5.524998
 10
16.629979
 20
5.474999
  0
LINE
  5
963
100
AcDbEntity
  8
0
100
AcDbLine
 62
7
  6
CONTINUOUS
 10
16.98
 20
0.01
 11
16.98
 21
10.99
  0
LINE
  5
964
100
AcDbEntity
  8
0
100
AcDbLine
 62
3
  6
CONTINUOUS
 10
3.8459158831
 20
4.4317902124
 11
4.4259844181
 21
3.7735101895
  0
LINE
  5
965
100
AcDbEntity
  8
0
100
AcDbLine
 62
3
  6
CONTINUOUS
 10
4.7844537375
 20
7.4820382395
 11
4.0609974747
 21
6.7716172246
  0
LINE
  5
966
100
AcDbEntity
  8
0
100
AcDbLine
 62
3
  6
CONTINUOUS
 10
6.6615294465
 20
3.7344044455
 11
7.4892676932
 21
3.9038626692
  0
LINE
  5
967
100
AcDbEntity
  8
0
100
AcDbLine
 62
3
  6
CONTINUOUS
 10
4.0609974747
 20
6.7716172246
 11
3.8459158831
 21
4.4317902124
  0
LINE
  5
968
100
AcDbEntity
  8
0
100
AcDbLine
 62
3
  6
CONTINUOUS
 10
4.4259844181
 20
3.7735101895
 11
5.8989674397
 21
3.9560036612
  0
LINE
  5
969
100
AcDbEntity
  8
0
100
AcDbLine
 62
3
  6
CONTINUOUS
 10
5.8989674397
 20
3.9560036612
 11
6.6615294465
 21
3.7344044455
  0
LINE
  5
96A
100
AcDbEntity
  8
0
100
AcDbLine
 62
3
  6
CONTINUOUS
 10
6.3769956174
 20
4.4549625305
 11
5.0103289507
 21
4.4549625305
  0
LINE
  5
96B
100
AcDbEntity
  8
3_ALL_AXES
100
AcDbLine
 62
7
  6
CENTER
 10
4.8019956174
 20
6.6049625305
 11
4.8019956174
 21
6.4716291972
  0
LINE
  5
96C
100
AcDbEntity
  8
3_ALL_AXES
100
AcDbLine
 62
7
  6
CENTER
 10
4.8019956174
 20
6.2716291972
 11
4.8019956174
 21
6.1382958638
  0
LINE
  5
96D
100
AcDbEntity
  8
3_ALL_AXES
100
AcDbLine
 62
7
  6
CENTER
 10
4.8019956174
 20
4.9382958638
 11
4.8019956174
 21
4.8049625305
  0
LINE
  5
96E
100
AcDbEntity
  8
3_ALL_AXES
100
AcDbLine
 62
7
  6
CENTER
 10
4.8019956174
 20
4.6049625305
 11
4.8019956174
 21
4.4716291972
  0
LINE
  5
96F
100
AcDbEntity
  8
3_ALL_AXES
100
AcDbLine
 62
7
  6
CENTER
 10
4.8019956174
 20
4.6049625305
 11
4.8019956174
 21
4.7382958638
  0
LINE
  5
970
100
AcDbEntity
  8
3_ALL_AXES
100
AcDbLine
 62
7
  6
CENTER
 10
4.8019956174
 20
4.9382958638
 11
4.8019956174
 21
5.0716291972
  0
LINE
  5
971
100
AcDbEntity
  8
3_ALL_AXES
100
AcDbLine
 62
7
  6
CENTER
 10
4.8019956174
 20
6.2716291972
 11
4.8019956174
 21
6.4049625305
  0
LINE
  5
972
100
AcDbEntity
  8
3_ALL_AXES
100
AcDbLine
 62
7
  6
CENTER
 10
4.8019956174
 20
6.6049625305
 11
4.8019956174
 21
6.7382958638
  0
LINE
  5
973
100
AcDbEntity
  8
3_ALL_AXES
100
AcDbLine
 62
7
  6
CENTER
 10
6.5853289507
 20
4.6049625305
 11
6.4519956174
 21
4.6049625305
  0
LINE
  5
974
100
AcDbEntity
  8
3_ALL_AXES
100
AcDbLine
 62
7
  6
CENTER
 10
4.8019956174
 20
4.6049625305
 11
4.6686622841
 21
4.6049625305
  0
LINE
  5
975
100
AcDbEntity
  8
3_ALL_AXES
100
AcDbLine
 62
7
  6
CENTER
 10
4.8019956174
 20
4.6049625305
 11
4.9353289507
 21
4.6049625305
  0
LINE
  5
976
100
AcDbEntity
  8
3_ALL_AXES
100
AcDbLine
 62
7
  6
CENTER
 10
6.5853289507
 20
4.6049625305
 11
6.7186622841
 21
4.6049625305
  0
LINE
  5
977
100
AcDbEntity
  8
0
100
AcDbLine
 62
3
  6
CONTINUOUS
 10
5.0103289507
 20
4.4549625305
 11
5.0103289507
 21
6.7549625305
  0
LINE
  5
978
100
AcDbEntity
  8
3_ALL_AXES
100
AcDbLine
 62
7
  6
CENTER
 10
6.5853289507
 20
4.9382958638
 11
6.4519956174
 21
4.9382958638
  0
LINE
  5
979
100
AcDbEntity
  8
3_ALL_AXES
100
AcDbLine
 62
7
  6
CENTER
 10
4.8019956174
 20
4.9382958638
 11
4.6686622841
 21
4.9382958638
  0
LINE
  5
97A
100
AcDbEntity
  8
3_ALL_AXES
100
AcDbLine
 62
7
  6
CENTER
 10
4.8019956174
 20
4.9382958638
 11
4.9353289507
 21
4.9382958638
  0
LINE
  5
97B
100
AcDbEntity
  8
3_ALL_AXES
100
AcDbLine
 62
7
  6
CENTER
 10
6.5853289507
 20
4.9382958638
 11
6.7186622841
 21
4.9382958638
  0
LINE
  5
97C
100
AcDbEntity
  8
DEFAULT_1
100
AcDbLine
 62
7
  6
CENTER
 10
5.6936622841
 20
5.6049625305
 11
4.7486253358
 21
5.6049625305
  0
LINE
  5
97D
100
AcDbEntity
  8
DEFAULT_1
100
AcDbLine
 62
7
  6
CENTER
 10
5.6936622841
 20
5.6049625305
 11
6.635012421
 21
5.6049625305
  0
LINE
  5
97E
100
AcDbEntity
  8
DEFAULT_1
100
AcDbLine
 62
7
  6
CENTER
 10
5.6936622841
 20
5.6049625305
 11
5.6936622841
 21
4.3751974985
  0
LINE
  5
97F
100
AcDbEntity
  8
DEFAULT_1
100
AcDbLine
 62
7
  6
CENTER
 10
5.6936622841
 20
5.6049625305
 11
5.6936622841
 21
6.8938931039
  0
LINE
  5
980
100
AcDbEntity
  8
0
100
AcDbLine
 62
3
  6
CONTINUOUS
 10
6.3769956174
 20
6.7549625305
 11
6.3769956174
 21
4.4549625305
  0
LINE
  5
981
100
AcDbEntity
  8
3_ALL_AXES
100
AcDbLine
 62
7
  6
CENTER
 10
6.5853289507
 20
6.2716291972
 11
6.4519956174
 21
6.2716291972
  0
LINE
  5
982
100
AcDbEntity
  8
3_ALL_AXES
100
AcDbLine
 62
7
  6
CENTER
 10
4.8019956174
 20
6.2716291972
 11
4.6686622841
 21
6.2716291972
  0
LINE
  5
983
100
AcDbEntity
  8
3_ALL_AXES
100
AcDbLine
 62
7
  6
CENTER
 10
4.8019956174
 20
6.2716291972
 11
4.9353289507
 21
6.2716291972
  0
LINE
  5
984
100
AcDbEntity
  8
3_ALL_AXES
100
AcDbLine
 62
7
  6
CENTER
 10
6.5853289507
 20
6.2716291972
 11
6.7186622841
 21
6.2716291972
  0
LINE
  5
985
100
AcDbEntity
  8
3_ALL_AXES
100
AcDbLine
 62
7
  6
CENTER
 10
6.5853289507
 20
6.6049625305
 11
6.5853289507
 21
6.4716291972
  0
LINE
  5
986
100
AcDbEntity
  8
3_ALL_AXES
100
AcDbLine
 62
7
  6
CENTER
 10
6.5853289507
 20
6.2716291972
 11
6.5853289507
 21
6.1382958638
  0
LINE
  5
987
100
AcDbEntity
  8
3_ALL_AXES
100
AcDbLine
 62
7
  6
CENTER
 10
6.5853289507
 20
4.9382958638
 11
6.5853289507
 21
4.8049625305
  0
LINE
  5
988
100
AcDbEntity
  8
3_ALL_AXES
100
AcDbLine
 62
7
  6
CENTER
 10
6.5853289507
 20
4.6049625305
 11
6.5853289507
 21
4.4716291972
  0
LINE
  5
989
100
AcDbEntity
  8
3_ALL_AXES
100
AcDbLine
 62
7
  6
CENTER
 10
6.5853289507
 20
4.6049625305
 11
6.5853289507
 21
4.7382958638
  0
LINE
  5
98A
100
AcDbEntity
  8
3_ALL_AXES
100
AcDbLine
 62
7
  6
CENTER
 10
6.5853289507
 20
4.9382958638
 11
6.5853289507
 21
5.0716291972
  0
LINE
  5
98B
100
AcDbEntity
  8
3_ALL_AXES
100
AcDbLine
 62
7
  6
CENTER
 10
6.5853289507
 20
6.2716291972
 11
6.5853289507
 21
6.4049625305
  0
LINE
  5
98C
100
AcDbEntity
  8
3_ALL_AXES
100
AcDbLine
 62
7
  6
CENTER
 10
6.5853289507
 20
6.6049625305
 11
6.5853289507
 21
6.7382958638
  0
LINE
  5
98D
100
AcDbEntity
  8
3_ALL_AXES
100
AcDbLine
 62
7
  6
CENTER
 10
6.5853289507
 20
6.6049625305
 11
6.4519956174
 21
6.6049625305
  0
LINE
  5
98E
100
AcDbEntity
  8
3_ALL_AXES
100
AcDbLine
 62
7
  6
CENTER
 10
4.8019956174
 20
6.6049625305
 11
4.6686622841
 21
6.6049625305
  0
LINE
  5
98F
100
AcDbEntity
  8
3_ALL_AXES
100
AcDbLine
 62
7
  6
CENTER
 10
4.8019956174
 20
6.6049625305
 11
4.9353289507
 21
6.6049625305
  0
LINE
  5
990
100
AcDbEntity
  8
3_ALL_AXES
100
AcDbLine
 62
7
  6
CENTER
 10
6.5853289507
 20
6.6049625305
 11
6.7186622841
 21
6.6049625305
  0
LINE
  5
991
100
AcDbEntity
  8
0
100
AcDbLine
 62
3
  6
CONTINUOUS
 10
7.4892676932
 20
3.9038626692
 11
7.2155274856
 21
4.5686603162
  0
LINE
  5
992
100
AcDbEntity
  8
0
100
AcDbLine
 62
3
  6
CONTINUOUS
 10
5.0103289507
 20
6.7549625305
 11
6.3769956174
 21
6.7549625305
  0
LINE
  5
993
100
AcDbEntity
  8
0
100
AcDbLine
 62
3
  6
CONTINUOUS
 10
5.2276521688
 20
7.2865095198
 11
4.7844537375
 21
7.4820382395
  0
LINE
  5
994
100
AcDbEntity
  8
0
100
AcDbLine
 62
3
  6
CONTINUOUS
 10
7.2155274856
 20
4.5686603162
 11
7.4306090773
 21
6.9084873284
  0
LINE
  5
995
100
AcDbEntity
  8
0
100
AcDbLine
 62
3
  6
CONTINUOUS
 10
6.7006351904
 20
7.4690029915
 11
5.2276521688
 21
7.2865095198
  0
LINE
  5
996
100
AcDbEntity
  8
0
100
AcDbLine
 62
3
  6
CONTINUOUS
 10
7.4306090773
 20
6.9084873284
 11
6.7006351904
 21
7.4690029915
  0
CIRCLE
  5
997
100
AcDbEntity
  8
0
100
AcDbCircle
 62
7
  6
CONTINUOUS
 10
1.1033594992
 20
0.6752425318
 40
0.22
  0
CIRCLE
  5
998
100
AcDbEntity
  8
0
100
AcDbCircle
 62
2
  6
CONTINUOUS
 10
12.2602973251
 20
2.0044904596
 40
0.178571
  0
CIRCLE
  5
999
100
AcDbEntity
  8
0
100
AcDbCircle
 62
7
  6
CONTINUOUS
 10
1.1030054264
 20
0.6747306755
 40
0.125
  0
CIRCLE
  5
99A
100
AcDbEntity
  8
3_ALL_AXES
100
AcDbCircle
 62
3
  6
CONTINUOUS
 10
4.8019956174
 20
6.6049625305
 40
0.0333333333
  0
CIRCLE
  5
99B
100
AcDbEntity
  8
3_ALL_AXES
100
AcDbCircle
 62
3
  6
CONTINUOUS
 10
4.8019956174
 20
6.2716291972
 40
0.0333333333
  0
CIRCLE
  5
99C
100
AcDbEntity
  8
3_ALL_AXES
100
AcDbCircle
 62
3
  6
CONTINUOUS
 10
6.5853289507
 20
6.6049625305
 40
0.0333333333
  0
CIRCLE
  5
99D
100
AcDbEntity
  8
3_ALL_AXES
100
AcDbCircle
 62
3
  6
CONTINUOUS
 10
6.5853289507
 20
6.2716291972
 40
0.0333333333
  0
CIRCLE
  5
99E
100
AcDbEntity
  8
3_ALL_AXES
100
AcDbCircle
 62
3
  6
CONTINUOUS
 10
4.8019956174
 20
4.6049625305
 40
0.0333333333
  0
CIRCLE
  5
99F
100
AcDbEntity
  8
3_ALL_AXES
100
AcDbCircle
 62
3
  6
CONTINUOUS
 10
4.8019956174
 20
4.9382958638
 40
0.0333333333
  0
CIRCLE
  5
9A0
100
AcDbEntity
  8
3_ALL_AXES
100
AcDbCircle
 62
3
  6
CONTINUOUS
 10
6.5853289507
 20
4.6049625305
 40
0.0333333333
  0
CIRCLE
  5
9A1
100
AcDbEntity
  8
3_ALL_AXES
100
AcDbCircle
 62
3
  6
CONTINUOUS
 10
6.5853289507
 20
4.9382958638
 40
0.0333333333
  0
ENDSEC
  0
SECTION
  2
OBJECTS
  0
DICTIONARY
  5
C
100
AcDbDictionary
280
0
281
1
  3
ACAD_GROUP
350
D
  3
ACAD_MLINESTYLE
350
17
  3
ACAD_LAYOUT
350
1A
  3
ACAD_PLOTSETTINGS
350
19
  3
ACAD_PLOTSTYLENAME
350
E
  0
DICTIONARY
  5
D
102
{ACAD_REACTORS
330
C
102
}
100
AcDbDictionary
280
0
281
1
  0
ACDBDICTIONARYWDFLT
  5
E
102
{ACAD_REACTORS
330
C
102
}
100
AcDbDictionary
281
1
  3
Normal
350
F
100
AcDbDictionaryWithDefault
340
F
  0
DICTIONARY
  5
17
102
{ACAD_REACTORS
330
C
102
}
100
AcDbDictionary
280
0
281
1
  3
Standard
350
18
  0
DICTIONARY
  5
19
102
{ACAD_REACTORS
330
C
102
}
100
AcDbDictionary
281
1
  0
DICTIONARY
  5
1A
102
{ACAD_REACTORS
330
C
102
}
100
AcDbDictionary
281
1
  3
Model
350
9A2
  3
Layout1
350
9A3
  0
ACDBPLACEHOLDER
  5
F
102
{ACAD_REACTORS
330
E
102
}
  0
MLINESTYLE
  5
18
102
{ACAD_REACTORS
330
17
102
}
100
AcDbMlineStyle
  2
STANDARD
 70
0
  3

 62
256
 51
90.0
 52
90.0
 71
2
 49
0.5
 62
256
  6
BYLAYER
 49
-0.5
 62
256
  6
BYLAYER
  0
LAYOUT
  5
9A2
102
{ACAD_REACTORS
330
1A
102
}
100
AcDbPlotSettings
  1

  2
none_device
  4
ANSI_B_(17.00_x_11.00_Inches)
  6

 40
0.0
 41
0.0
 42
0.0
 43
0.0
 44
431.8
 45
279.4
 46
0.0
 47
0.0
 48
0.0
 49
0.0
140
0.0
141
0.0
142
1.0
143
1.0
 70
1024
 72
0
 73
0
 74
0
  7

 75
0
147
1.0
148
0.0
149
0.0
100
AcDbLayout
  1
Model
 70
0
 71
0
 10
0.0
 20
0.0
 11
17.0
 21
11.0
 12
0.0
 22
0.0
 32
0.0
 14
0.0
 24
0.0
 34
0.0
 15
0.0
 25
0.0
 35
0.0
146
0.0
 13
0.0
 23
0.0
 33
0.0
 16
1.0
 26
0.0
 36
0.0
 17
0.0
 27
1.0
 37
0.0
 76
0
330
210
345
0
346
0
  0
LAYOUT
  5
9A3
102
{ACAD_REACTORS
330
1A
102
}
100
AcDbPlotSettings
  1

  2
none_device
  4
ANSI_B_(17.00_x_11.00_Inches)
  6

 40
0.0
 41
0.0
 42
0.0
 43
0.0
 44
431.8
 45
279.4
 46
0.0
 47
0.0
 48
0.0
 49
0.0
140
0.0
141
0.0
142
1.0
143
1.0
 70
0
 72
0
 73
0
 74
0
  7

 75
0
147
1.0
148
0.0
149
0.0
100
AcDbLayout
  1
Layout1
 70
0
 71
1
 10
0.0
 20
0.0
 11
17.0
 21
11.0
 12
0.0
 22
0.0
 32
0.0
 14
0.0
 24
0.0
 34
0.0
 15
0.0
 25
0.0
 35
0.0
146
0.0
 13
0.0
 23
0.0
 33
0.0
 16
1.0
 26
0.0
 36
0.0
 17
0.0
 27
1.0
 37
0.0
 76
0
330
211
345
0
346
0
  0
ENDSEC
  0
EOF
